Šta je novo?
Član
Učlanjen(a)
02.03.2013
Poruka
3.108
Calvary 2014 BDRip x264-ROVERS

Lq3_JW.jpg


Kod:
Calvary.2014.BDRip.x264-ROVERS

Date: 24.06.2014
Video: X264 @ crf 19
FPS: 24.000
Resolution: 720x306
Size: 472MB (495211338 Bytes)
Audio: AAC LC 2ch 48.0 KHz
Language: English
Subtitles: None
Runtime: 1h 41mn
URL: http://www.imdb.com/title/tt2234003

Calvary_2014_BDRip_x264_ROVERS_s.jpg


If U Like My Post Willing To Buy Premium For High Speed Resumable downloads Pls BuY Premium From This Links

Kod:
http://rapidgator.net/file/ca6cfcb54634a0b53548a7228b3c2b52/Calvary_2014_BDRip_x264-ROVERS.mkv.html


http://fileom.com/moj995x4j1ha/Calvary_2014_BDRip_x264-ROVERS.mkv.html

http://k2s.cc/file/6544067647ce4/Calvary_2014_BDRip_x264-ROVERS.mkv



 
Član
Učlanjen(a)
09.05.2011
Poruka
7.549
************************************************************
Calvary (2014) 1080p BluRay DD5.1 x264-EA
File Size: 7.73 GiB

************************************************************

calvaryhd.jpg


INFO:
Kod:
General
Complete name                            : Calvary 2014 1080p BluRay DD5.1 x264-EA.mkv
Format                                   : Matroska
Format version                           : Version 4 / Version 2
File size                                : 7.73 GiB
Duration                                 : 1h 41mn
Overall bit rate                         : 10.9 Mbps
Movie name                               : John Michael McDonagh - Calvary (2014)
Encoded date                             : UTC 2014-06-27 06:36:55
Writing application                      : mkvmerge v7.0.0 ('Where We Going') 64bit built on Jun  9 2014 15:16:27
Writing library                          : libebml v1.3.0 + libmatroska v1.4.1
DURATION                                 : 01:41:30

Video
ID                                       : 1
Format                                   : AVC
Format/Info                              : Advanced Video Codec
Format profile                           : [email protected]
Format settings, CABAC                   : Yes
Format settings, ReFrames                : 5 frames
Codec ID                                 : V_MPEG4/ISO/AVC
Duration                                 : 1h 41mn
Bit rate                                 : 10.0 Mbps
Width                                    : 1 920 pixels
Height                                   : 818 pixels
Display aspect ratio                     : 2.35:1
Frame rate mode                          : Constant
Frame rate                               : 24.000 fps
Color space                              : YUV
Chroma subsampling                       : 4:2:0
Bit depth                                : 8 bits
Scan type                                : Progressive
Bits/(Pixel*Frame)                       : 0.267
Stream size                              : 7.12 GiB (92%)
Title                                    : -EA
Writing library                          : x264 core 142 r2431+42 c69a006 tMod [[email protected] X86_64]
Language                                 : English
Default                                  : Yes
Forced                                   : No
DURATION                                 : 01:41:30.000000000

Audio
ID                                       : 2
Format                                   : AC-3
Format/Info                              : Audio Coding 3
Mode extension                           : CM (complete main)
Format settings, Endianness              : Big
Codec ID                                 : A_AC3
Duration                                 : 1h 41mn
Bit rate mode                            : Constant
Bit rate                                 : 640 Kbps
Channel(s)                               : 6 channels
Channel positions                        : Front: L C R, Side: L R, LFE
Sampling rate                            : 48.0 KHz
Bit depth                                : 16 bits
Compression mode                         : Lossy
Stream size                              : 465 MiB (6%)
Language                                 : English
Default                                  : Yes
Forced                                   : No

iMDB:
Kod:
http://www.imdb.com/title/tt2234003/

calvary.png


Single Extraction | No Password | Interchangeable Links: | Working 100% |

Kod:
http://rapidgator.net/file/d5cb80b153d1aa306005c3db1dcc348a/Calvary14.1080p.EA.part1.rar.html
http://rapidgator.net/file/290dccf26d2393cd6993a02d9831e765/Calvary14.1080p.EA.part2.rar.html
http://rapidgator.net/file/352e4044df865af5b9436702342b6130/Calvary14.1080p.EA.part3.rar.html
http://rapidgator.net/file/4d5452b226b7f4d5b76f3142f91f8d72/Calvary14.1080p.EA.part4.rar.html
http://rapidgator.net/file/24991da9f37751aa98043388588cc60d/Calvary14.1080p.EA.part5.rar.html
http://rapidgator.net/file/e1f805e8c47766b617a3bf56d2f9e9ab/Calvary14.1080p.EA.part6.rar.html

http://uploaded.net/file/ojyea1tl/Calvary14.1080p.EA.part1.rar
http://uploaded.net/file/urvh36yt/Calvary14.1080p.EA.part2.rar
http://uploaded.net/file/7w2nnmq2/Calvary14.1080p.EA.part3.rar
http://uploaded.net/file/sss2u4px/Calvary14.1080p.EA.part4.rar
http://uploaded.net/file/djk5a7n9/Calvary14.1080p.EA.part5.rar
http://uploaded.net/file/16ng7k8d/Calvary14.1080p.EA.part6.rar

http://k2s.cc/file/062cb179ddeaa/Calvary14.1080p.EA.part1.rar
http://k2s.cc/file/1cb738091ced1/Calvary14.1080p.EA.part2.rar
http://k2s.cc/file/555be0194ee2c/Calvary14.1080p.EA.part3.rar
http://k2s.cc/file/81ca79800556a/Calvary14.1080p.EA.part4.rar
http://k2s.cc/file/f1ca7eed47486/Calvary14.1080p.EA.part5.rar
http://k2s.cc/file/928b173025796/Calvary14.1080p.EA.part6.rar
 
Top