Šta je novo?

Cabin Fever Patient Zero (2014)

Član
Učlanjen(a)
09.05.2011
Poruka
7.549
************************************************************
Cabin Fever Patient Zero (2014) 720p BluRay x264 iNVANDRAREN
File Size: 4.37 GiB

************************************************************

cabinhd.jpg


INFO:

General
Complete name : CFPZ2014.720p.bluray.invandraren.mkv
Format : Matroska
Format version : Version 4 / Version 2
File size : 4.37 GiB
Duration : 1h 34mn
Overall bit rate : 6 606 Kbps
Encoded date : UTC 2014-04-26 09:02:12
Writing application : mkvmerge v6.5.0 ('Isn't she lovely') built on Oct 20 2013 12:50:05
Writing library : libebml v1.3.0 + libmatroska v1.4.1

Video
ID : 1
Format : AVC
Format/Info : Advanced Video Codec
Format profile : [email protected]
Format settings, CABAC : Yes
Format settings, ReFrames : 5 frames
Codec ID : V_MPEG4/ISO/AVC
Duration : 1h 34mn
Bit rate : 5 096 Kbps
Width : 1 280 pixels
Height : 720 pixels
Display aspect ratio : 16:9
Frame rate mode : Constant
Frame rate : 23.976 fps
Color space : YUV
Chroma subsampling : 4:2:0
Bit depth : 8 bits
Scan type : Progressive
Bits/(Pixel*Frame) : 0.231
Stream size : 3.28 GiB (75%)
Writing library : x264 core 142 r2431kMod ac76440
Language : English
Default : No
Forced : No

Audio
ID : 2
Format : DTS
Format/Info : Digital Theater Systems
Mode : 16
Format settings, Endianness : Big
Codec ID : A_DTS
Duration : 1h 34mn
Bit rate mode : Constant
Bit rate : 1 509 Kbps
Channel(s) : 6 channels
Channel positions : Front: L C R, Side: L R, LFE
Sampling rate : 48.0 KHz
Bit depth : 24 bits
Compression mode : Lossy
Stream size : 1 022 MiB (23%)
Language : English
Default : Yes
Forced : No

iMDB:
Kod:
http://www.imdb.com/title/tt2102496/

vlcsnap-2014-04-26-14h16.png


vlcsnap-2014-04-26-14h16.png


vlcsnap-2014-04-26-14h16.png


Single Extraction | No Password | Interchangeable Links: | Working 100% |

Kod:
http://uploaded.net/file/swf9id8m/CFPZ2014.720p.part1.rar
http://uploaded.net/file/4fk58d1x/CFPZ2014.720p.part2.rar
http://uploaded.net/file/m5najwau/CFPZ2014.720p.part3.rar
http://uploaded.net/file/bt4z0qri/CFPZ2014.720p.part4.rar
http://uploaded.net/file/6gpyv3bt/CFPZ2014.720p.part5.rar

http://rapidgator.net/file/cf20a2904e5d2439d15180a98934e7cf/CFPZ2014.720p.part1.rar.html
http://rapidgator.net/file/9b0a21558d673cd939b37362b8adb456/CFPZ2014.720p.part2.rar.html
http://rapidgator.net/file/adfeab1895d081609dd712eca7fef364/CFPZ2014.720p.part3.rar.html
http://rapidgator.net/file/c9a9189d53a322971d5ee8becb066cee/CFPZ2014.720p.part4.rar.html
http://rapidgator.net/file/585d867afc7283c7e816578dee641fb2/CFPZ2014.720p.part5.rar.html

http://fileom.com/61jzm8r4if7i/CFPZ2014.720p.part1.rar.html
http://fileom.com/y32v1syu4zyx/CFPZ2014.720p.part2.rar.html
http://fileom.com/c8j6jn8bfe6r/CFPZ2014.720p.part3.rar.html
http://fileom.com/hei20yo194sd/CFPZ2014.720p.part4.rar.html
http://fileom.com/np9q35nhxfev/CFPZ2014.720p.part5.rar.html

https://www.oboom.com/P8B314YW/CFPZ2014.720p.part1.rar
https://www.oboom.com/JH3V9E3D/CFPZ2014.720p.part2.rar
https://www.oboom.com/R1TNLPA5/CFPZ2014.720p.part3.rar
https://www.oboom.com/P6V3NO77/CFPZ2014.720p.part4.rar
https://www.oboom.com/WPA9LCCK/CFPZ2014.720p.part5.rar
 
Top