Šta je novo?
Član
Učlanjen(a)
09.05.2011
Poruka
7.549

************************************************************
By the Gun (2014) 720p WEB-DL x264 ETRG
File Size: 3.34 GiB
************************************************************


gun.jpg


INFO:
Kod:
General
Complete name                            : By.the.Gun.2014.720p.WEB-DL.x264[ETRG].mkv
Format                                   : Matroska
Format version                           : Version 4 / Version 2
File size                                : 3.34 GiB
Duration                                 : 1h 49mn
Overall bit rate                         : 4 351 Kbps
Encoded date                             : UTC 2014-12-05 06:30:51
Writing application                      : mkvmerge v6.7.0 ('Back to the Ground') 64bit built on Jan  8 2014 15:10:52
Writing library                          : libebml v1.3.0 + libmatroska v1.4.1

Video
ID                                       : 1
Format                                   : AVC
Format/Info                              : Advanced Video Codec
Format profile                           : [email protected]
Format settings, CABAC                   : No
Format settings, ReFrames                : 2 frames
Codec ID                                 : V_MPEG4/ISO/AVC
Duration                                 : 1h 49mn
Bit rate                                 : 3 881 Kbps
Width                                    : 1 280 pixels
Height                                   : 528 pixels
Display aspect ratio                     : 2.40:1
Frame rate mode                          : Constant
Frame rate                               : 23.976 fps
Color space                              : YUV
Chroma subsampling                       : 4:2:0
Bit depth                                : 8 bits
Scan type                                : Progressive
Bits/(Pixel*Frame)                       : 0.239
Stream size                              : 2.98 GiB (89%)
Language                                 : English
Default                                  : Yes
Forced                                   : No
Color primaries                          : BT.709
Transfer characteristics                 : BT.709
Matrix coefficients                      : BT.709

Audio
ID                                       : 2
Format                                   : AC-3
Format/Info                              : Audio Coding 3
Mode extension                           : CM (complete main)
Format settings, Endianness              : Big
Codec ID                                 : A_AC3
Duration                                 : 1h 49mn
Bit rate mode                            : Constant
Bit rate                                 : 384 Kbps
Channel(s)                               : 6 channels
Channel positions                        : Front: L C R, Side: L R, LFE
Sampling rate                            : 48.0 KHz
Bit depth                                : 16 bits
Compression mode                         : Lossy
Stream size                              : 302 MiB (9%)
Language                                 : English
Default                                  : Yes
Forced                                   : No

iMDB:
Kod:
http://www.imdb.com/title/tt2543702/

gunhd.png


Single Extraction | No Password | Interchangeable Links: | Working 100% |

Kod:
http://rapidgator.net/file/a90206c49463947ed235f65ab1f462b8/By.the.Gun.2014.720p.WEB-DL.part1.rar.html
http://rapidgator.net/file/42a542a556fad53e3183f0d739499a0c/By.the.Gun.2014.720p.WEB-DL.part2.rar.html
http://rapidgator.net/file/eb477e7c86a8a7fcae92eaeaca4c30cc/By.the.Gun.2014.720p.WEB-DL.part3.rar.html
http://rapidgator.net/file/aa5ca65f6774040c8477b6210d1f52ce/By.the.Gun.2014.720p.WEB-DL.part4.rar.html

http://uploaded.net/file/cd25y4eg/By.the.Gun.2014.720p.WEB-DL.part1.rar
http://uploaded.net/file/62trqhyi/By.the.Gun.2014.720p.WEB-DL.part2.rar
http://uploaded.net/file/8osxoedm/By.the.Gun.2014.720p.WEB-DL.part3.rar
http://uploaded.net/file/1csmop6x/By.the.Gun.2014.720p.WEB-DL.part4.rar

http://k2s.cc/file/fd5ce29696023/By.the.Gun.2014.720p.WEB-DL.part1.rar
http://k2s.cc/file/fbea8b35c6d49/By.the.Gun.2014.720p.WEB-DL.part2.rar
http://k2s.cc/file/bb18f2f696eee/By.the.Gun.2014.720p.WEB-DL.part3.rar
http://k2s.cc/file/db9f11e72b592/By.the.Gun.2014.720p.WEB-DL.part4.rar

http://www.nitroflare.com/view/0CC666DE2714C76/By.the.Gun.2014.720p.WEB-DL.part1.rar
http://www.nitroflare.com/view/458DCF7FF84CAF4/By.the.Gun.2014.720p.WEB-DL.part2.rar
http://www.nitroflare.com/view/8B2A6BA8CD8C2AF/By.the.Gun.2014.720p.WEB-DL.part3.rar
http://www.nitroflare.com/view/8C7C89ACD63F29A/By.the.Gun.2014.720p.WEB-DL.part4.rar



:!: PLEASE SEE BEFORE DOWNLOADING

:arrow: Backups Ready. Reply Here When links Dead, I will re-up A.S.A.P
:arrow: Links Are Interchangeable
:arrow: I used to upload on different 4 file host for you
:arrow: No compromise about quality which u get here

DON'T FORGET TO SAY THANKS IF YOU LIKE MY POST !
 
Top