Šta je novo?
Član
Učlanjen(a)
09.05.2011
Poruka
7.549
************************************************************
Buttwhistle (2014) WEBRip XviD AC3 Team V
File Size: 1.33 GiB

************************************************************

6RvzZeI.jpg


Title: Buttwhistle
Year: 2014
Genre: Comedy, Crime, Drama
Rating: N/A (N/A votes)
Runtime: N/A
Director: Tenney Fairchild
Cast: Trevor Morgan, Elizabeth Rice, Analeigh Tipton, Adhir Kalyan
Plot:
Kod:
Ogden Confer is a community college student living with his parents and dealing with the recent loss of his best pal, Rose, when he foils the suicide effort of a mysterious young lady, Beth...

INFO:
Kod:
General
Complete name                            : Buttwhistle 2014 WEBRIP Xvid AC3-Team V.avi
Format                                   : AVI
Format/Info                              : Audio Video Interleave
File size                                : 1.33 GiB
Duration                                 : 1h 33mn
Overall bit rate                         : 2 031 Kbps

Video
ID                                       : 0
Format                                   : MPEG-4 Visual
Format profile                           : Advanced [email protected]
Format settings, BVOP                    : 2
Format settings, QPel                    : Yes
Format settings, GMC                     : No warppoints
Format settings, Matrix                  : Default (MPEG)
Codec ID                                 : XVID
Codec ID/Hint                            : XviD
Duration                                 : 1h 33mn
Bit rate                                 : 1 640 Kbps
Width                                    : 720 pixels
Height                                   : 400 pixels
Display aspect ratio                     : 16:9
Frame rate                               : 23.976 fps
Color space                              : YUV
Chroma subsampling                       : 4:2:0
Bit depth                                : 8 bits
Scan type                                : Progressive
Compression mode                         : Lossy
Bits/(Pixel*Frame)                       : 0.237
Stream size                              : 1.07 GiB (81%)
Writing library                          : XviD 1.2.1 (UTC 2008-12-04)

Audio
ID                                       : 1
Format                                   : AC-3
Format/Info                              : Audio Coding 3
Mode extension                           : CM (complete main)
Format settings, Endianness              : Big
Codec ID                                 : 2000
Duration                                 : 1h 33mn
Bit rate mode                            : Constant
Bit rate                                 : 384 Kbps
Channel(s)                               : 6 channels
Channel positions                        : Front: L C R, Side: L R, LFE
Sampling rate                            : 48.0 KHz
Bit depth                                : 16 bits
Compression mode                         : Lossy
Stream size                              : 257 MiB (19%)
Alignment                                : Aligned on interleaves
Interleave, duration                     : 64 ms (1.53 video frames)
Interleave, preload duration             : 192 ms

iMDB:
Kod:
http://www.imdb.com/title/tt1959526/
Movie Trailer:
Kod:
http://www.youtube.com/watch?v=Ox41lXhc1Xo

vlcsnap-2014-04-29-19h15.png


vlcsnap-2014-04-29-19h16.png


vlcsnap-2014-04-29-19h16.png


Single Extraction | No Password | Interchangeable Links: | Working 100% |

Kod:
http://rapidgator.net/file/581bb347a7e5a2c142feda8f88597194/Buttwhistle2014.WEBRip.TeamV.part1.rar.html
http://rapidgator.net/file/3130c5e7ce4c8d4e647c35dbc069c1db/Buttwhistle2014.WEBRip.TeamV.part2.rar.html
http://rapidgator.net/file/4a9f862878b040b4d488b0c80dd1476e/Buttwhistle2014.WEBRip.TeamV.part3.rar.html

http://ul.to/mltmjjf0/Buttwhistle2014.WEBRip.TeamV.part1.rar
http://ul.to/5cngyyai/Buttwhistle2014.WEBRip.TeamV.part2.rar
http://ul.to/avljaqbl/Buttwhistle2014.WEBRip.TeamV.part3.rar

https://www.oboom.com/4Q4IO4F1/Buttwhistle2014.WEBRip.TeamV.part1.rar
https://www.oboom.com/MRAZMV0U/Buttwhistle2014.WEBRip.TeamV.part2.rar
https://www.oboom.com/615KP7N8/Buttwhistle2014.WEBRip.TeamV.part3.rar

http://terafile.co/775147dd54df/Buttwhistle2014.WEBRip.TeamV.part1.rar
http://terafile.co/3f487758996d/Buttwhistle2014.WEBRip.TeamV.part2.rar
http://terafile.co/75940311275f/Buttwhistle2014.WEBRip.TeamV.part3.rar
 
Top