Šta je novo?
Član
Učlanjen(a)
09.05.2011
Poruka
7.549
************************************************************
Bushido Man (2013) BDRip x264 AC3-MiLLENiUM
File Size: 1.64 GiB

************************************************************

bushido.jpg


INFO:
Kod:
General
Complete name                            : Bushido Man 2013 BDRip x264 AC3-MiLLENiUM.mkv
Format                                   : Matroska
Format version                           : Version 2
File size                                : 1.64 GiB
Duration                                 : 1h 27mn
Overall bit rate mode                    : Variable
Overall bit rate                         : 2 676 Kbps
Encoded date                             : UTC 2014-06-23 15:23:39
Writing application                      : mkvmerge v7.0.0 ('Where We Going') 32bit built on Jun  9 2014 15:08:34
Writing library                          : libebml v1.3.0 + libmatroska v1.4.1
DURATION                                 : 01:25:51.938000000

Video
ID                                       : 1
Format                                   : AVC
Format/Info                              : Advanced Video Codec
Format profile                           : [email protected]
Format settings, CABAC                   : Yes
Format settings, ReFrames                : 3 frames
Codec ID                                 : V_MPEG4/ISO/AVC
Duration                                 : 1h 27mn
Bit rate mode                            : Variable
Bit rate                                 : 2 174 Kbps
Maximum bit rate                         : 40.0 Mbps
Width                                    : 720 pixels
Height                                   : 400 pixels
Display aspect ratio                     : 16:9
Frame rate mode                          : Constant
Frame rate                               : 23.976 fps
Color space                              : YUV
Chroma subsampling                       : 4:2:0
Bit depth                                : 8 bits
Scan type                                : Progressive
Bits/(Pixel*Frame)                       : 0.315
Stream size                              : 1.33 GiB (81%)
Writing library                          : x264 core 142 r2431 ac76440
Default                                  : Yes
Forced                                   : No

Audio
ID                                       : 2
Format                                   : AC-3
Format/Info                              : Audio Coding 3
Mode extension                           : CM (complete main)
Format settings, Endianness              : Big
Codec ID                                 : A_AC3
Duration                                 : 1h 27mn
Bit rate mode                            : Constant
Bit rate                                 : 448 Kbps
Channel(s)                               : 6 channels
Channel positions                        : Front: L C R, Side: L R, LFE
Sampling rate                            : 48.0 KHz
Bit depth                                : 16 bits
Compression mode                         : Lossy
Stream size                              : 281 MiB (17%)
Language                                 : English
Default                                  : Yes
Forced                                   : No

iMDB:
Kod:
http://www.imdb.com/title/tt2748546/

bushido-man-2013-bdrip-x.png


Single Extraction | No Password | Interchangeable Links: | Working 100% |

Kod:
http://uploaded.net/file/8bf3jjfn/Bushid0.Man.BDRip.MiLLENiUM.part1.rar
http://uploaded.net/file/e1fhjp28/Bushid0.Man.BDRip.MiLLENiUM.part2.rar
http://uploaded.net/file/o6fa1upj/Bushid0.Man.BDRip.MiLLENiUM.part3.rar
http://uploaded.net/file/88o5b0fb/Bushid0.Man.BDRip.MiLLENiUM.part4.rar

http://rapidgator.net/file/45db814408775e8375749c5cb48eddef/Bushid0.Man.BDRip.MiLLENiUM.part1.rar.html
http://rapidgator.net/file/57f6cd40052533640b60169f53ddff25/Bushid0.Man.BDRip.MiLLENiUM.part2.rar.html
http://rapidgator.net/file/6b0748e3c337ae3e82b5205cd6f39de9/Bushid0.Man.BDRip.MiLLENiUM.part3.rar.html
http://rapidgator.net/file/637482c5bbe755af28f38121ff5af27a/Bushid0.Man.BDRip.MiLLENiUM.part4.rar.html

http://k2s.cc/file/10db1d43bbe38/Bushid0.Man.BDRip.MiLLENiUM.part1.rar
http://k2s.cc/file/62942507342d1/Bushid0.Man.BDRip.MiLLENiUM.part2.rar
http://k2s.cc/file/7d9a429deab6e/Bushid0.Man.BDRip.MiLLENiUM.part3.rar
http://k2s.cc/file/662e5e7dcbf4f/Bushid0.Man.BDRip.MiLLENiUM.part4.rar
 
Top