Šta je novo?

Bunnyman Massacre (2014)

Član
Učlanjen(a)
09.05.2011
Poruka
7.549
************************************************************
Bunnyman Massacre (2014) DVDRip XviD AC3 BMW
File Size: 1.36 GiB

************************************************************

bunny.jpg


INFO:
Kod:
General
Complete name                            : F:\BM2014.BMW\BM2014.BMW.avi
Format                                   : AVI
Format/Info                              : Audio Video Interleave
File size                                : 1.36 GiB
Duration                                 : 1h 44mn
Overall bit rate                         : 1 860 Kbps

Video
ID                                       : 0
Format                                   : MPEG-4 Visual
Format profile                           : Advanced [email protected]
Format settings, BVOP                    : 2
Format settings, QPel                    : No
Format settings, GMC                     : No warppoints
Format settings, Matrix                  : Default (H.263)
Muxing mode                              : Packed bitstream
Codec ID                                 : XVID
Codec ID/Hint                            : XviD
Duration                                 : 1h 44mn
Bit rate                                 : 1 596 Kbps
Width                                    : 720 pixels
Height                                   : 304 pixels
Display aspect ratio                     : 2.35:1
Frame rate                               : 29.970 fps
Color space                              : YUV
Chroma subsampling                       : 4:2:0
Bit depth                                : 8 bits
Scan type                                : Progressive
Compression mode                         : Lossy
Bits/(Pixel*Frame)                       : 0.243
Stream size                              : 1.17 GiB (86%)
Writing library                          : XviD 1.2.1 (UTC 2008-12-04)

Audio
ID                                       : 1
Format                                   : AC-3
Format/Info                              : Audio Coding 3
Mode extension                           : CM (complete main)
Format settings, Endianness              : Big
Codec ID                                 : 2000
Duration                                 : 1h 44mn
Bit rate mode                            : Constant
Bit rate                                 : 256 Kbps
Channel(s)                               : 2 channels
Channel positions                        : Front: L R
Sampling rate                            : 44.1 KHz
Bit depth                                : 16 bits
Compression mode                         : Lossy
Stream size                              : 192 MiB (14%)
Alignment                                : Aligned on interleaves
Interleave, duration                     : 70 ms (2.09 video frames)
Interleave, preload duration             : 209 ms

iMDB:
Kod:
http://www.imdb.com/title/tt2043801/

bm2014bmwpreview.png


Single Extraction | No Password | Interchangeable Links: | Working 100% |

Kod:
http://rapidgator.net/file/f50b14f590610f2ff1407b04414a3523/BM2014.DVDRip.BMW.part1.rar.html
http://rapidgator.net/file/57694e111c6501b080aecaf67cd68162/BM2014.DVDRip.BMW.part2.rar.html
http://rapidgator.net/file/13b1dd3b5edcca8cdb196ee18650cdb4/BM2014.DVDRip.BMW.part3.rar.html

http://uploaded.net/file/yq09665y/BM2014.DVDRip.BMW.part1.rar
http://uploaded.net/file/eyt603xf/BM2014.DVDRip.BMW.part2.rar
http://uploaded.net/file/9wf3yerl/BM2014.DVDRip.BMW.part3.rar

http://k2s.cc/file/8e4b259966b84/BM2014.DVDRip.BMW.part1.rar
http://k2s.cc/file/ed0b1f95200be/BM2014.DVDRip.BMW.part2.rar
http://k2s.cc/file/6c525efb547a6/BM2014.DVDRip.BMW.part3.rar
 
Top