Šta je novo?

Boss baby aka Мали шеф (2017)

  • Začetnik teme simark
  • Datum pokretanja
S

simark

Učlanjen(a)
05.09.2009
Poruka
189
Мали шеф -на српском језику
нови одличан звук и снимак - две верзије

Boss baby DivX-MP3 sound & FullHD-5.1 AC3 sound



Одличан снимак и одличан српски звук прелепог цртаног филма за децу. Две
верзије су направљене и постављене: ниска резолуција са стерео звуком и
висока са шестоканалним звуком, за свакога по нешто. Уживајте...

Ниска резолуција, стерео звук:

Complete name :Мали шеф новији-The.Boss.Baby.2017.HDRip.XViD-simark.avi

File size : 738 MiB
Duration : 1h 37mn

Video
Codec ID/Hint : XviD
Bit rate : 861 Kbps
Width : 640 pixels
Height : 272 pixels
Display aspect ratio : 2.35:1
Frame rate mode : Constant
Frame rate : 24.000 fps
Stream size : 603 MiB (82%)
Writing library : XviD 65
Language : English

Audio
Codec ID/Hint : MP3
Bit rate mode : Constant
Bit rate : 192 Kbps
Channel(s) : 2 channels
Sampling rate : 48.0 KHz
Stream size : 134 MiB (18%)
Title : српски нов
Language : Serbian

Hidden content
You need to react to this post in order to see this content.

Висока резолуција, шестоканални звук:

Complete name :Мали шеф новији-The.Boss.Baby.2017.1080p.BluRay.x264-simark.mkv
Format : Matroska
Format version : Version 4 / Version 2
File size : 1.66 GiB
Duration : 1h 37mn

Video
Codec ID : V_MPEG4/ISO/AVC
Bit rate : 2 050 Kbps
Width : 1 920 pixels
Height : 816 pixels
Display aspect ratio : 2.35:1
Frame rate mode : Constant
Frame rate : 23.976 fps
Stream size : 1.40 GiB (84%)
Writing library : x264 core 148
Language : English

Audio
Codec ID : A_AC3
Bit rate mode : Constant
Bit rate : 384 Kbps
Channel(s) : 6 channelsE
Sampling rate : 48.0 KHz
Stream size : 268 MiB (16%)
Title : српски нов
Language : Serbian

Hidden content
You need to react to this post in order to see this content.

Нема шифри...
 
Poslednja izmena:
Top