Šta je novo?

Bitka na Neretvi (1969)

  • Začetnik teme dragansd84
  • Datum pokretanja
dragansd84

dragansd84

VIP IPTV
Učlanjen(a)
09.12.2012
Poruka
19.619
Bitka na Neretvi (1969)



http://www.imdb.com/title/tt0064091/

Pocetkom 1943. godine nemacki generali su poceli, po Hitlerovom licnom naredenju, sa sprovodenjem plana "Vajs" za uništenje partizanskih jedinica. Pritisnuti daleko nadmocnijim neprijateljem, partizani, sa Vrhovnim štabom i 4.500 ranjenika i tifusara, našli su se opkoljeni u dolini Neretve. Ostao je samo jedan most na cijoj drugoj strani su cekale jake neprijateljske snage, pripremajuci se za masakr ranjenih boraca i bespomocnog naroda. Tito je naredio da se sruši most. Iznenadeni neprijatelj je prebacio svoje snage na drugu stranu predvidajuci da ce partizani pokušati samoubilacki proboj obruca. Ali, u toku samo jedne noci partizani su izgradili provizorni most pored srušenog i prebacili se na drugu stranu izigravši neprijatelja.

Žanr: Drama | War
Režiser: Veljko Bulajic
Glavne uloge: Yul Brynner, Hardy Krüger and Franco Nero





Hidden content
You need to react to this post in order to see this content.
 
dimic92

dimic92

Član
Učlanjen(a)
16.11.2010
Poruka
266



:info:

Battle on Neretva known as the ”fourth offensive” the most humane battle in World War II led by Yugoslav partisans. In January 1943 German army, afraid of Allied invasion of Balkans, launched great offensive against Yugoslav Partisans in Western Bosnia.

They encircle the mountain and begin the mop up operation. Out gunned and outnumbered the partisans must not only take care of themselves but try to protect thousands of refugees too. Providing a heroic resistance, multiple superior enemy partisans advancing towards the only remaining bridge over the Neretva river, through which they intend to transfer himself and wounded at free territory. Therefore, all the shock decision of the Supreme Headquarters to demolish the bridge, but it is just as foolish ruse to weaken the enemy forces on the other side of the river. Movie Battle of Neretva is usually the most famous work by the Yugoslav film industry has produced.
:screen:








Serbo-Croatian | DVDRip | AVI | XviD, 1037 Kbps | 640×320 | 1398.74 MB
Audio: MP3, 128 Kbps | 2 channels | Runtime: 02:45:34 minutes | Subs: English (srt)
Genre: Drama, War

:download:

Kod:
http://nitroflare.com/view/298C935CCF8B612/Bitka.Na.Neretvi.rar
 
Poslednja izmena:
Wolf 13

Wolf 13

MODERATOR
Učlanjen(a)
10.10.2009
Poruka
13.278
Bitka na Neretvi (1969) Ktv Remastered E-AC3 x264 by Wolf
(MKV)



Kod:
 https://www.imdb.com/title/tt0064091/
General
Unique ID : 269334380701642274442043440424247737685 (0xCA9FEA35E106CFF2EB4AEA154415BD55)
Complete name : Bitka na Neretvi (1969) Ktv Remastered E-AC3 x264 by Wolf.mkv
Format : Matroska
Format version : Version 4 / Version 2
File size : 2.04 GiB
Duration : 2 h 46 min
Overall bit rate : 1 758 kb/s
Encoded date : UTC 2018-09-05 16:14:46 / UTC 2018-09-05T11:21:11Z
Writing application : mkvmerge v26.0.0 ('In The Game') 64-bit
Writing library : libebml v1.3.6 + libmatroska v1.4.9 / Lavf57.7.2

Video
ID : 1
Format : AVC
Format/Info : Advanced Video Codec
Format profile : High [email protected]
Format settings : CABAC / 5 Ref Frames
Format settings, CABAC : Yes
Format settings, ReFrames : 5 frames
Codec ID : V_MPEG4/ISO/AVC
Duration : 2 h 46 min
Bit rate : 1 500 kb/s
Width : 720 pixels
Height : 256 pixels
Display aspect ratio : 2.35:1
Original display aspect rat : 2.813
Frame rate mode : Constant
Frame rate : 25.000 FPS
Color space : YUV
Chroma subsampling : 4:2:0
Bit depth : 10 bits
Scan type : Progressive
Bits/(Pixel*Frame) : 0.326
Stream size : 1.70 GiB (83%)
Title : Bitka na Neretvi (1969)
Writing library : x264 core 155 r2901 7d0ff22
Encoding settings : cabac=1 / ref=5 / deblock=1:0:0 / analyse=0x3:0x113 / me=hex / subme=8 / psy=1 / psy_rd=1.00:0.00 / mixed_ref=1 / me_range=16 / chroma_me=1 / trellis=2 / 8x8dct=1 / cqm=0 / deadzone=21,11 / fast_pskip=1 / chroma_qp_offset=-2 / threads=6 / lookahead_threads=1 / sliced_threads=0 / nr=0 / decimate=1 / interlaced=0 / bluray_compat=0 / constrained_intra=0 / bframes=3 / b_pyramid=2 / b_adapt=1 / b_bias=0 / direct=3 / weightb=1 / open_gop=0 / weightp=2 / keyint=250 / keyint_min=25 / scenecut=40 / intra_refresh=0 / rc_lookahead=50 / rc=2pass / mbtree=1 / bitrate=1500 / ratetol=1.0 / qcomp=0.60 / qpmin=0 / qpmax=81 / qpstep=4 / cplxblur=20.0 / qblur=0.5 / vbv_maxrate=150000 / vbv_bufsize=187500 / nal_hrd=none / filler=0 / ip_ratio=1.40 / aq=1:1.00
Language : Serbian
Default : Yes
Forced : No
Color range : Limited
Color primaries : BT.601 PAL
Transfer characteristics : BT.709
Matrix coefficients : BT.601
Statistics Tags Issue : mkvmerge v26.0.0 ('In The Game') 64-bit 2018-09-05 16:14:46 / mkvmerge v26.0.0 ('In The Game') 64-bit 2018-09-05 16:14:46 / UTC 2018-09-05T11:21:11Z
FromStats_BitRate : 1500057
FromStats_Duration : 02:46:08.960000000
FromStats_FrameCount : 249224
FromStats_StreamSize : 1869251865

Audio
ID : 2
Format : E-AC-3
Format/Info : Enhanced Audio Coding 3
Codec ID : A_EAC3
Duration : 2 h 46 min
Bit rate mode : Constant
Bit rate : 256 kb/s
Channel(s) : 6 channels
Channel positions : Front: L C R, Side: L R, LFE
Sampling rate : 48.0 kHz
Frame rate : 187.500 FPS (256 SPF)
Compression mode : Lossy
Delay relative to video : -21 ms
Stream size : 304 MiB (15%)
Title : Bitka na Neretvi (1969)
Language : Serbian
Service kind : Complete Main
Default : Yes
Forced : No
Statistics Tags Issue : mkvmerge v26.0.0 ('In The Game') 64-bit 2018-09-05 16:14:46 / mkvmerge v26.0.0 ('In The Game') 64-bit 2018-09-05 16:14:46 / UTC 2018-09-05T11:21:11Z
FromStats_BitRate : 256000
FromStats_Duration : 02:46:08.928000000
FromStats_FrameCount : 311529
FromStats_StreamSize : 319005696

Hidden content
You need to react to this post in order to see this content.

Hidden content
You need to react to this post in order to see this content.

 
katamaniak

katamaniak

UREDNIK
Učlanjen(a)
24.03.2015
Poruka
4.716
Bitka na Neretvi (1969)












Hidden content
You need to react to this post in order to see this content.

Hvala MGB od srca,njegava KataManiak

 
Poslednja izmena:
Top