Šta je novo?

Beli lavovi aka The White Lions (2011)

  • Začetnik teme Wolf 13
  • Datum pokretanja
Wolf 13

Wolf 13

MODERATOR
Učlanjen(a)
10.10.2009
Poruka
13.278
Beli lavovi (2011) DVDrip DD5.1 x264 by Wolf
(MKV)



Kod:
 https://www.imdb.com/title/tt1730108/
General
Unique ID : 329162751167811367361900646530813698552 (0xF7A2709D9ED608511B3955DECFBAA1F8)
Complete name : Beli lavovi (2011) DVDrip DD5.1 x264 by Wolf.mkv
Format : Matroska
Format version : Version 4
File size : 1.10 GiB
Duration : 1 h 30 min
Overall bit rate : 1 744 kb/s
Encoded date : UTC 2018-10-15 16:16:07 / UTC 2018-10-15T11:03:25Z
Writing application : mkvmerge v27.0.0 ('Metropolis') 64-bit
Writing library : libebml v1.3.6 + libmatroska v1.4.9 / Lavf57.7.2

Video
ID : 1
Format : AVC
Format/Info : Advanced Video Codec
Format profile : High [email protected]
Format settings : CABAC / 5 Ref Frames
Format settings, CABAC : Yes
Format settings, Reference : 5 frames
Codec ID : V_MPEG4/ISO/AVC
Duration : 1 h 30 min
Bit rate : 1 500 kb/s
Width : 702 pixels
Height : 552 pixels
Display aspect ratio : 16:9
Original display aspect rat : 16:9
Frame rate mode : Constant
Frame rate : 25.000 FPS
Color space : YUV
Chroma subsampling : 4:2:0
Bit depth : 10 bits
Scan type : Progressive
Bits/(Pixel*Frame) : 0.155
Stream size : 941 MiB (83%)
Title : Beli lavovi (2011)
Writing library : x264 core 155 r2901 7d0ff22
Encoding settings : cabac=1 / ref=5 / deblock=1:-1:-1 / analyse=0x3:0x113 / me=hex / subme=8 / psy=1 / psy_rd=1.00:0.15 / mixed_ref=1 / me_range=16 / chroma_me=1 / trellis=2 / 8x8dct=1 / cqm=0 / deadzone=21,11 / fast_pskip=1 / chroma_qp_offset=-3 / threads=6 / lookahead_threads=1 / sliced_threads=0 / nr=0 / decimate=1 / interlaced=0 / bluray_compat=0 / constrained_intra=0 / bframes=3 / b_pyramid=2 / b_adapt=1 / b_bias=0 / direct=3 / weightb=1 / open_gop=0 / weightp=2 / keyint=250 / keyint_min=25 / scenecut=40 / intra_refresh=0 / rc_lookahead=50 / rc=2pass / mbtree=1 / bitrate=1500 / ratetol=1.0 / qcomp=0.60 / qpmin=0 / qpmax=81 / qpstep=4 / cplxblur=20.0 / qblur=0.5 / vbv_maxrate=150000 / vbv_bufsize=187500 / nal_hrd=none / filler=0 / ip_ratio=1.40 / aq=1:1.00
Language : Serbian
Default : Yes
Forced : No
Color range : Limited
Color primaries : BT.601 PAL
Transfer characteristics : BT.709
Matrix coefficients : BT.601
Statistics Tags Issue : mkvmerge v27.0.0 ('Metropolis') 64-bit 2018-10-15 16:16:07 / mkvmerge v27.0.0 ('Metropolis') 64-bit 2018-10-15 16:16:07 / UTC 2018-10-15T11:03:25Z
FromStats_BitRate : 1499544
FromStats_Duration : 01:29:42.000000000
FromStats_FrameCount : 134550
FromStats_StreamSize : 1008818516

Audio
ID : 2
Format : E-AC-3
Format/Info : Enhanced AC-3
Commercial name : Dolby Digital Plus
Codec ID : A_EAC3
Duration : 1 h 30 min
Bit rate mode : Constant
Bit rate : 256 kb/s
Channel(s) : 6 channels
Channel layout : L R C LFE Ls Rs
Sampling rate : 48.0 kHz
Frame rate : 31.250 FPS (1536 SPF)
Compression mode : Lossy
Delay relative to video : -5 ms
Stream size : 166 MiB (15%)
Title : Beli lavovi (2011)
Language : Serbian
Service kind : Complete Main
Default : Yes
Forced : No
Statistics Tags Issue : mkvmerge v27.0.0 ('Metropolis') 64-bit 2018-10-15 16:16:07 / mkvmerge v27.0.0 ('Metropolis') 64-bit 2018-10-15 16:16:07 / UTC 2018-10-15T11:03:25Z
FromStats_BitRate : 256000
FromStats_Duration : 01:30:28.608000000
FromStats_FrameCount : 169644
FromStats_StreamSize : 173715456

Hidden content
You need to react to this post in order to see this content.

Hidden content
You need to react to this post in order to see this content.

 
Top