Šta je novo?

Barbie -new movies ака Барби -новији филмови (2016 - 2019)

  • Začetnik teme simark
  • Datum pokretanja
S

simark

Učlanjen(a)
05.09.2009
Poruka
182
Барби Дримтопија
-на српском језику
Barbie Dreamtopia


Цртани на српском о Барби и њеној најмлађој сестри Челзи.
У вишој резолуцији и са остављеним енглеским звуком. Уживајте...


Complete name : Барби Дримтопија - Barbie Dreamtopia (2016) x264 720p DVDRiP {Dual Audio} [Serbian 2.0 + English 2.0] -simark.mkv

File size : 576 MiB
Duration : 45 min 53 s

Video
Codec ID : V_MPEG4/ISO/AVC
Bit rate : 1 494 kb/s
Width : 1 280 pixels
Height : 720 pixels
Display aspect ratio : 1.85:1
Frame rate : 23.976 (24000/1001) FPS
Stream size : 490 MiB (85%)

Audio #1
Codec ID : A_AAC-2
Bit rate : 128 kb/s
Channel(s) : 2 channels
Sampling rate : 44.1 kHz
Stream size : 41.8 MiB (7%)
Language : Serbian

Audio #2
Codec ID : A_AAC-2
Bit rate : 128 kb/s
Channel(s) : 2 channels
Sampling rate : 48.0 kHz
Stream size : 42.0 MiB (7%)
Language : English


Hidden content
You need to react to this post in order to see this content.
Нема шифре...
 
S

simark

Učlanjen(a)
05.09.2009
Poruka
182
Барби авантуре у кући снова
-загонетка чаробне сирене

на српском језику синхро.
Barbie dreamhouse adventures
-magical mermaid mystery 2019

Новији цртани на српском језику, целе дужине (иначе четвороделни).
Нижа резолуција и прихватљив снимак, а звук одличан. Уживајте...



Complete name
: Барби авантуре у кући снова-загонетка чаробне сирене - Barbie dreamhouse adventures-magical mermaid mystery TV_2019 LQ-simark.mkv

File size : 650 MiB
Duration : 1 h 19 min

Video
Codec ID : V_MPEG4/ISO/AVC
Bit rate : 1 012 kb/s
Width : 768 pixels
Height : 432 pixels
Display aspect ratio : 16:9
Frame rate : 25.000 FPS
Stream size : 577 MiB (89%)
Writing library : x264 core 142

Audio
Codec ID : A_AAC-2
Bit rate : 125 kb/s
Channel(s) : 2 channels
Sampling rate : 48.0 kHz
Stream size : 71.5 MiB (11%)



Hidden content
You need to react to this post in order to see this content.
Нема шифре...

 
Top