Šta je novo?

Barbie -new movies ака Барби -новији филмови (2016 - 2019)

  • Začetnik teme simark
  • Datum pokretanja
S

simark

Učlanjen(a)
05.09.2009
Poruka
188
Барби -звездана авантура
-на српском (и енг.) језику
Barbie -star light adventure (2016)

Један од новијих филмова на српском о Барби, права свемирска авантура.
Фајл је мале величине, више резолуције а остављен је и енглески звук.

Complete name : Барби-звездана авантура - Barbie.Star.Light.Adventure.2016.720p.BRRip.x264.AAC.Dual-simark.mkv

File size : 660 MiB
Duration : 1 h 19 min

Video
Codec ID : V_MPEG4/ISO/AVC
Bit rate : 999 kb/s
Width : 1 280 pixels
Height : 720 pixels
Display aspect ratio : 16:9
Frame rate : 23.976 (24000/1001) FPS
Stream size : 567 MiB (86%)
Writing library : x264 core 148 r2638 7599210

Audio #1
Codec ID : A_AAC-2
Bit rate : 64.0 kb/s
Channel(s) : 2 channels
Sampling rate : 48.0 kHz
Stream size : 36.3 MiB (6%)
Language : Serbian

Audio #2
Codec ID : A_AAC-2
Bit rate : 96.0 kb/s
Channel(s) : 2 channels
Sampling rate : 48.0 kHz
Stream size : 54.5 MiB (8%)
Language : English


Hidden content
You need to react to this post in order to see this content.
Нема шифре, уживајте...
 
S

simark

Učlanjen(a)
05.09.2009
Poruka
188
Барби -чаробни делфин
-на српском и енг. језику
Barbie -dolphin magic (2017).

Још новија, летња авантура Барби(ке) на српском језику.
Таман за крај лета. И овде је виша резолуција, мали фајл
и остављен енглески звук. Уживајте...

Complete name : Барби-чаробни делфин - Barbie.Dolphin.Magic.2017.NF.720p.HDRip.x264.AAC.Dual-simark.mkv

File size : 664 MiB
Duration : 1 h 3 min

Video
Codec ID : V_MPEG4/ISO/AVC
Bit rate : 1 300 kb/s
Width : 1 280 pixels
Height : 720 pixels
Display aspect ratio : 16:9
Frame rate : 23.976 (24000/1001) FPS
Stream size : 590 MiB (89%)
Writing library : x264 core 148 r2708 86b7198

Audio #1
Codec ID : A_AAC-2
Bit rate : 64.0 kb/s
Channel(s) : 2 channels
Sampling rate : 44.1 kHz
Stream size : 28.8 MiB (4%)
Language : Serbian

Audio #2
Codec ID : A_AAC-2
Bit rate : 96.0 kb/s
Channel(s) : 2 channels
Sampling rate : 48.0 kHz
Stream size : 43.6 MiB (7%)
Language : English


Hidden content
You need to react to this post in order to see this content.
Нема шифре...
 
S

simark

Učlanjen(a)
05.09.2009
Poruka
188
Барби -тајни агенти
на српском (и енг.)

Barbie -spy squad (ser,2016)

Када три гимнастичарке постану шпијуни авантура је гарантована.

Још један филм о Барбики и пријатељицама на српском језику.
У вишој резолуцији, остављен је и енглески звук. Уживајте...

Complete name : Барби-тајни агенти - Barbie.Spy.Squad.2016.720p.BluRay.x264.Dual-simark.mkv

File size : 619 MiB
Duration : 1 h 15 min

Video
Codec ID : V_MPEG4/ISO/AVC
Bit rate : 900 kb/s
Width : 1 280 pixels
Height : 714 pixels
Display aspect ratio : 16:9
Frame rate : 23.976 (24000/1001) FPS
Stream size : 485 MiB (78%)
Writing library : x264 core 148

Audio #1
Codec ID : A_AAC-2
Bit rate : 128 kb/s
Channel(s) : 2 channels
Sampling rate : 44.1 kHz
Stream size : 68.7 MiB (11%)
Language : Serbian

Audio #2
Codec ID : A_AAC-2
Bit rate : 117 kb/s
Channel(s) : 2 channels
Sampling rate : 48.0 kHz
Stream size : 63.4 MiB (10%)
Language : English


Hidden content
You need to react to this post in order to see this content.
Нема шифре...
 
S

simark

Učlanjen(a)
05.09.2009
Poruka
188
Барби -херој из видео игрице
на српском и енглеском језику
Barbie -video game hero (2017)


И још један, таман за крај распуста нови цртани са Барби.
На српском (и енг.) језику, у вишој резолуцији. Уживајте.

Complete name :Барби-херој из видео игрице - Barbie.Video.Game.Hero.2017.720p.WEBRip.x264.AAC Dual-simark.mkv

File size : 599 MiB
Duration : 1 h 12 min

Video
Codec ID : V_MPEG4/ISO/AVC
Bit rate : 999 kb/s
Width : 1 280 pixels
Height : 718 pixels
Display aspect ratio : 16:9
Frame rate : 23.976 (24000/1001) FPS
Stream size : 516 MiB (86%)
Writing library : x264 core 148 r2638 7599210

Audio #1
Codec ID : A_AAC-2
Bit rate : 64.0 kb/s
Channel(s) : 2 channels
Sampling rate : 44.1 kHz
Stream size : 32.9 MiB (5%)
Language : Serbian

Audio #2
Codec ID : A_AAC-2
Bit rate : 93.4 kb/s
Channel(s) : 2 channels
Sampling rate : 48.0 kHz
Stream size : 48.3 MiB (8%)
Language : English

Hidden content
You need to react to this post in order to see this content.
Нема шифре...
 
S

simark

Učlanjen(a)
05.09.2009
Poruka
188
Барби и тајна врата - на српском
Barbie and the secret door(2014,ser,eng)

Још један, мало старији цртани на српском језику. Уживајте...



Complete name : Барби и тајна врата - Barbie.And.The.Secret.Door.2014.720p.BluRay.x264.Dual-simark.mkv

File size : 630 MiB
Duration : 1 h 20 min

Video
Codec ID : V_MPEG4/ISO/AVC
Bit rate : 900 kb/s
Width : 1 270 pixels
Height : 720 pixels
Display aspect ratio : 16:9
Frame rate : 23.976 (24000/1001) FPS
Stream size : 520 MiB (83%)
Writing library : x264 core 148

Audio #1
Codec ID : A_AAC-2
Bit rate : 64.0 kb/s
Channel(s) : 2 channels
Sampling rate : 48.0 kHz
Stream size : 36.9 MiB (6%)
Language : Serbian

Audio #2
Codec ID : A_AAC-2
Bit rate : 123 kb/s
Channel(s) : 2 channels
Sampling rate : 48.0 kHz
Stream size : 70.9 MiB (11%)
Language : English





Hidden content
You need to react to this post in order to see this content.
Нема шифре...
 
S

simark

Učlanjen(a)
05.09.2009
Poruka
188
Барби и њене сестре у великој авантури са куцама
на српском и енглеском језику 2015 г.
Barbie and Her Sisters in the Great Puppy Adventure

Први од два цртана на српском са Барби, сестрама и куцама.
Виша резолуција, остављен и енглески језик, следи још један
цртани са куцама. Уживајте...



Complete name : Барби и њене сестре у великој авантури са куцама - Barbie Her Sisters in the Great Puppy Adventure 2015 1080p HDRip to 720p Dual-simark.mkv

File size : 689 MiB
Duration : 1 h 15 min

Video
Codec ID : V_MPEG4/ISO/AVC
Bit rate : 1 105 kb/s
Width : 1 280 pixels
Height : 720 pixels
Display aspect ratio : 16:9
Frame rate : 23.976 (24000/1001) FPS
Stream size : 586 MiB (85%)
Writing library : x264 core 142

Audio #1
Codec ID : A_AAC-2
Bit rate : 128 kb/s
Channel(s) : 2 channels
Sampling rate : 44.1 kHz
Stream size : 68.8 MiB (10%)
Language : Serbian

Audio #2
Codec ID : A_AAC-2
Bit rate : 61.4 kb/s
Channel(s) : 2 channels
Sampling rate : 48.0 kHz
Stream size : 33.0 MiB (5%)
Language : English


Hidden content
You need to react to this post in order to see this content.
Нема шифре...
 
S

simark

Učlanjen(a)
05.09.2009
Poruka
188
Барби и њене сестре у јурњави за куцама
на српском и енглеском језику 2016
Barbie and her Sisters in a Puppy Chase (ser)

И други цртани са куцама (и коњима) на српском језику.
Виша резолуција, енглески звук је остављен, уживајте...



Complete name : Барби и њене сестре у јурњави за куцама - Barbie.and.Her.Sisters.in.a.Puppy.Chase.2016.720p.BRRip.x264.AAC.Dual-simark.mkv

File size : 657 MiB
Duration : 1 h 15 min

Video
Codec ID : V_MPEG4/ISO/AVC
Bit rate : 999 kb/s
Width : 1 280 pixels
Height : 720 pixels
Display aspect ratio : 16:9
Frame rate : 23.976 (24000/1001) FPS
Stream size : 538 MiB (82%)
Writing library : x264 core 148 r2638 7599210

Audio #1
Codec ID : A_AAC-2
Bit rate : 128 kb/s
Channel(s) : 2 channels
Sampling rate : 48.0 kHz
Stream size : 67.8 MiB (10%)
Language : Serbian

Audio #2
Codec ID : A_AAC-2
Bit rate : 93.3 kb/s
Channel(s) : 2 channels
Sampling rate : 48.0 kHz
Stream size : 50.2 MiB (8%)
Language : English


Hidden content
You need to react to this post in order to see this content.
Нема шифре...
 
S

simark

Učlanjen(a)
05.09.2009
Poruka
188
Барби у розе ципелама
на српском и енглеском
Barbie in the pink shoes

Мало старији, цртани са познатим музичким класицима
у балетском свету. У вишој резолуцији на српском
(и енглеском) језику. Уживајте...


Complete name :Барби у розе ципелама - Barbie.in.the.Pink.Shoes.2013.720p.BRrip.x264.Dual-simark.mkv

File size : 668 MiB
Duration : 1 h 14 min

Video
Codec ID : V_MPEG4/ISO/AVC
Bit rate : 1 025 kb/s
Width : 1 280 pixels
Height : 720 pixels
Display aspect ratio : 16:9
Frame rate : 23.976 (24000/1001) FPS
Stream size : 547 MiB (82%)

Audio #1
Codec ID : A_AAC-2
Bit rate : 128 kb/s
Channel(s) : 2 channels
Sampling rate : 48.0 kHz
Stream size : 68.3 MiB (10%)
Language : Serbian

Audio #2
Codec ID : A_AAC-2
Bit rate : 96.0 kb/s
Channel(s) : 2 channels
Sampling rate : 48.0 kHz
Stream size : 51.2 MiB (8%)
Language : English


Hidden content
You need to react to this post in order to see this content.
Нема шифре...
 
S

simark

Učlanjen(a)
05.09.2009
Poruka
188
Барби и њене сестре у причи о коњима
на српском и енглеском језику синхрон.
Barbie And Her Sisters In A Pony Tale

Још један цртани на српском о Барби и коњима.
У вишој резолуцији, остављен и енглески звук. Уживајте...


Complete name:Барби и њене сестре у причи о коњима - Barbie And Her Sisters In A Pony Tale (2013) 720p Blu-Ray x264 Dual-simark .mkv

File size : 676 MiB
Duration : 1 h 14 min

Video
Codec ID : V_MPEG4/ISO/AVC
Bit rate : 1 000 kb/s
Width : 1 280 pixels
Height : 720 pixels
Display aspect ratio : 16:9
Frame rate : 23.976 (24000/1001) FPS
Stream size : 531 MiB (78%)

Audio #1
Codec ID : A_AAC-2
Bit rate : 144 kb/s
Channel positions : Front: L R
Sampling rate : 48.0 kHz
Stream size : 76.2 MiB (11%)
Language : Serbian

Audio #2
Codec ID : A_AAC-2
Bit rate : 128 kb/s
Channel(s) : 2 channels
Sampling rate : 48.0 kHz
Stream size : 67.9 MiB (10%)
Language : English


Hidden content
You need to react to this post in order to see this content.
Нема шифре...
 
S

simark

Učlanjen(a)
05.09.2009
Poruka
188
Барби-моћ принцезе
на српском и енгл.
Barbie in princess power

И још један цртани о Барби као принцези. На српском и енглеском
језику и у вишој резолуцији. Уживајте...


Complete name :Барби-моћ принцезе - Barbie in Princess Power 2015 720p BluRay x264 AAC Dual-simark.mkv

File size : 645 MiB
Duration : 1 h 13 min

Video
Codec ID : V_MPEG4/ISO/AVC
Bit rate : 999 kb/s
Width : 1 280 pixels
Height : 720 pixels
Display aspect ratio : 16:9
Frame rate : 23.976 (24000/1001) FPS
Stream size : 527 MiB (82%)

Audio #1
Codec ID : A_AAC-2
Bit rate : 128 kb/s
Channel(s) : 2 channels
Sampling rate : 48.0 kHz
Stream size : 66.9 MiB (10%)
Language : Serbian

Audio #2
Codec ID : A_AAC-2
Bit rate : 93.3 kb/s
Channel(s) : 2 channels
Sampling rate : 48.0 kHz
Stream size : 49.2 MiB (8%)
Language : English



Hidden content
You need to react to this post in order to see this content.
Нема шифре...
 
Top