Šta je novo?

Banned In America Pack 1

Učlanjen(a)
21.11.2010
Poruka
76
Banned In America Pack 1 DVDRip Xvid

MGYdRyBb.jpeg


Kod:
Video
ID                               : 0
Format                           : MPEG-4 Visual
Format profile                   : Advanced [email protected]
Format settings, BVOP            : Yes
Format settings, QPel            : No
Format settings, GMC             : No warppoints
Format settings, Matrix          : Default (H.263)
Codec ID                         : XVID
Codec ID/Hint                    : XviD
Duration                         : 53mn 34s
Bit rate                         : 1 465 Kbps
Width                            : 704 pixels
Height                           : 396 pixels
Display aspect ratio             : 16:9
Frame rate                       : 29.970 fps
Resolution                       : 8 bits
Colorimetry                      : 4:2:0
Scan type                        : Progressive
Bits/(Pixel*Frame)               : 0.175
Stream size                      : 561 MiB (79%)
Writing library                  : XviD 1.2.1 (UTC 2008-12-04)

Audio
ID                               : 1
Format                           : AC-3
Format/Info                      : Audio Coding 3
Codec ID                         : 2000
Duration                         : 53mn 33s
Bit rate mode                    : Constant
Bit rate                         : 384 Kbps
Channel(s)                       : 2 channels
Channel positions                : Front: L R
Sampling rate                    : 48.0 KHz
Resolution                       : 16 bits
Stream size                      : 147 MiB (21%)
Alignment                        : Aligned on interleaves
Interleave, duration             : 32 ms (0.96 video frame)

http://www.imdb.com/title/tt0396484/

Kod:
Links are interchangeable | 400MB | No pass | ~Enjoy!

HotFile
Kod:
http://hotfile.com/dl/86093720/53f074d/BanInAmeLKRGdr.part1.rar.html
http://hotfile.com/dl/86093723/933fb39/BanInAmeLKRGdr.part2.rar.html
http://hotfile.com/dl/86093737/3cd6408/BanInAmeLKRGdr.part3.rar.html
http://hotfile.com/dl/86093755/c6f9178/BanInAmeLKRGdr.part4.rar.html
http://hotfile.com/dl/86093936/3c175f6/BanInAmeLKRGdr.part5.rar.html

FileServe
Kod:
http://www.fileserve.com/file/6TQ8FEB/BanInAmeLKRGdr.part1.rar
http://www.fileserve.com/file/axzweUK/BanInAmeLKRGdr.part2.rar
http://www.fileserve.com/file/m9mHGDy/BanInAmeLKRGdr.part3.rar
http://www.fileserve.com/file/xeBXSME/BanInAmeLKRGdr.part4.rar
http://www.fileserve.com/file/Ka7tPJU/BanInAmeLKRGdr.part5.rar

FileSonic
Kod:
http://www.filesonic.com/file/37370293/BanInAmeLKRGdr.part1.rar
http://www.filesonic.com/file/37371543/BanInAmeLKRGdr.part2.rar
http://www.filesonic.com/file/37370791/BanInAmeLKRGdr.part3.rar
http://www.filesonic.com/file/37371445/BanInAmeLKRGdr.part4.rar
http://www.filesonic.com/file/37370521/BanInAmeLKRGdr.part5.rar
 
Top