Šta je novo?
Član
Učlanjen(a)
09.05.2011
Poruka
7.549
=
Bad Milo (2013) LiMiTED 720p BluRay x264 GECKOS
File Size: 4.37 GiB

=

mlwU7lY.jpg


Title: Bad Milo
Year: 2013
Genre: Comedy, Horror
Rating: 5.4 (195 votes)
Runtime: 1 h 25 min
Director: Jacob Vaughan
Cast: Ken Marino, Gillian Jacobs, Patrick Warburton, Mary Kay Place
Plot:
Kod:
A horror comedy centered on a guy who learns that his unusual stomach problems are being caused by a demon living in his intestines.


General
Complete name : bad.milo.2013.limited.720p.bluray.x264-geckos.mkv
Format : Matroska
Format version : Version 2
File size : 4.37 GiB
Duration : 1h 24mn
Overall bit rate : 7 433 Kbps
Writing application : mkvmerge v4.1.1 ('Bouncin' Back') built on Jul 3 2010 22:54:08
Writing library : libebml v1.0.0 + libmatroska v1.0

Video
ID : 1
Format : AVC
Format/Info : Advanced Video Codec
Format profile : High@L3.1
Format settings, CABAC : Yes
Format settings, ReFrames : 5 frames
Codec ID : V_MPEG4/ISO/AVC
Duration : 1h 24mn
Bit rate : 5 925 Kbps
Width : 1 280 pixels
Height : 696 pixels
Display aspect ratio : 1.85:1
Frame rate mode : Constant
Frame rate : 23.976 fps
Color space : YUV
Chroma subsampling : 4:2:0
Bit depth : 8 bits
Scan type : Progressive
Bits/(Pixel*Frame) : 0.277
Stream size : 3.39 GiB (78%)
Writing library : x264 core 140 r2377 1ca7bb9
Language : English
Default : Yes
Forced : No

Audio
ID : 2
Format : DTS
Format/Info : Digital Theater Systems
Mode : 16
Format settings, Endianness : Big
Codec ID : A_DTS
Duration : 1h 24mn
Bit rate mode : Constant
Bit rate : 1 509 Kbps
Channel count : 6 channels
Channel positions : Front: L C R, Side: L R, LFE
Sampling rate : 48.0 KHz
Bit depth : 24 bits
Compression mode : Lossy
Stream size : 908 MiB (20%)
Language : English
Default : Yes
Forced : No

Kod:
[url]http://www.imdb.com/title/tt2274570/[/url]


milo.png



SINGLE EXTRACTION | NO PASSWORD | INTERCHANGEABLE LINK:
Kod:
[url]http://uploaded.net/file/4p6you3z/BaDM1L0.720p.GECKOS.part1.rar[/url]
[url]http://uploaded.net/file/30u4nq32/BaDM1L0.720p.GECKOS.part2.rar[/url]
[url]http://uploaded.net/file/yd92rwkp/BaDM1L0.720p.GECKOS.part3.rar[/url]
[url]http://uploaded.net/file/1ypnacpm/BaDM1L0.720p.GECKOS.part4.rar[/url]
[url]http://uploaded.net/file/pjf7wish/BaDM1L0.720p.GECKOS.part5.rar[/url]

[url]http://rapidgator.net/file/cbf478d65d7e8b1354869add6b349b8c/BaDM1L0.720p.GECKOS.part1.rar.html[/url]
[url]http://rapidgator.net/file/d1565e372cc77d89c78820a3b6386132/BaDM1L0.720p.GECKOS.part2.rar.html[/url]
[url]http://rapidgator.net/file/4611c04172664d9083300a3cb7cf0ce7/BaDM1L0.720p.GECKOS.part3.rar.html[/url]
[url]http://rapidgator.net/file/b8c8b3d79eea73d80141c617ed697ca9/BaDM1L0.720p.GECKOS.part4.rar.html[/url]
[url]http://rapidgator.net/file/f106535d977286b5269caf3baa542436/BaDM1L0.720p.GECKOS.part5.rar.html[/url]

[url]http://ryushare.com/zon813quldhy/BaDM1L0.720p.GECKOS.part1.rar[/url]
[url]http://ryushare.com/4cs5phphzfkj/BaDM1L0.720p.GECKOS.part2.rar[/url]
[url]http://ryushare.com/nm9hn00z4inw/BaDM1L0.720p.GECKOS.part3.rar[/url]
[url]http://ryushare.com/vsbb1rnybtlr/BaDM1L0.720p.GECKOS.part4.rar[/url]
[url]http://ryushare.com/zeuh9tripglc/BaDM1L0.720p.GECKOS.part5.rar[/url]

[url]http://lumfile.com/aycmj5evsnfn/BaDM1L0.720p.GECKOS.part1.rar.html[/url]
[url]http://lumfile.com/4d6zmawq8c7i/BaDM1L0.720p.GECKOS.part2.rar.html[/url]
[url]http://lumfile.com/6nb50xbse5tl/BaDM1L0.720p.GECKOS.part3.rar.html[/url]
[url]http://lumfile.com/j4id4am609nf/BaDM1L0.720p.GECKOS.part4.rar.html[/url]
[url]http://lumfile.com/6mclz9irykyk/BaDM1L0.720p.GECKOS.part5.rar.html[/url]

DOWNLOAD SINGL LINKS:
Kod:
[url]http://uploaded.net/file/4b6h0sun/bad.milo.2013.limited.720p.bluray.x264-geckos.mkv[/url]
[url]http://lumfile.com/ibpjs2uy56zz/bad.milo.2013.limited.720p.bluray.x264-geckos.mkv.html[/url]

I HAVE BACKUP, DONT WORRY ABOUT DEAD LINKS, PLEASE SEND ME PM, AND I WILL REUP ANY LINK


tnx.jpg
 
Član
Učlanjen(a)
09.05.2011
Poruka
7.549
===============================
Bad Milo (2013) LiMiTED 1080p BluRay x264 GECKOS
File Size: 6.55 GiB

===============================

badmilohd.jpg



General
Complete name : BM.2013.Limited.1080p.GECKOS.mkv
Format : Matroska
Format version : Version 2
File size : 6.55 GiB
Duration : 1h 24mn
Overall bit rate : 11.2 Mbps
Writing application : mkvmerge v4.1.1 ('Bouncin' Back') built on Jul 3 2010 22:54:08
Writing library : libebml v1.0.0 + libmatroska v1.0

Video
ID : 1
Format : AVC
Format/Info : Advanced Video Codec
Format profile : High@L4.0
Format settings, CABAC : Yes
Format settings, ReFrames : 4 frames
Codec ID : V_MPEG4/ISO/AVC
Duration : 1h 24mn
Bit rate : 9 648 Kbps
Width : 1 920 pixels
Height : 1 040 pixels
Display aspect ratio : 1.85:1
Frame rate mode : Constant
Frame rate : 23.976 fps
Color space : YUV
Chroma subsampling : 4:2:0
Bit depth : 8 bits
Scan type : Progressive
Bits/(Pixel*Frame) : 0.202
Stream size : 5.54 GiB (84%)
Writing library : x264 core 140 r2377 1ca7bb9
Language : English
Default : Yes
Forced : No

Audio
ID : 2
Format : DTS
Format/Info : Digital Theater Systems
Mode : 16
Format settings, Endianness : Big
Codec ID : A_DTS
Duration : 1h 24mn
Bit rate mode : Constant
Bit rate : 1 509 Kbps
Channel count : 6 channels
Channel positions : Front: L C R, Side: L R, LFE
Sampling rate : 48.0 KHz
Bit depth : 24 bits
Compression mode : Lossy
Stream size : 908 MiB (14%)
Language : English
Default : Yes
Forced : No

PLOT: Plot: Duncan is an average guy who works at an average office job. But he starts to get pains in his stomach whenever he feels stressed out. Things get worse every time he tries to just hide his stress, by burying it inside. It all comes to a head when that “stress” is turned in to an actual little beast that exits his body via his butt and takes revenge on the things that stress him out. But it soon starts to threaten the one thing he loves, his wife

Kod:
[url]http://www.imdb.com/title/tt2274570/[/url]


vlcsnap-2014-01-11-21h09.png


vlcsnap-2014-01-11-21h09.png


vlcsnap-2014-01-11-21h09.png



SINGLE EXTRACTION | NO PASSWORD | INTERCHANGEABLE LINK:
Kod:
[url]http://uploaded.net/file/rr55oe2x/BM.2013.1080p.GECKOS.part1.rar[/url]
[url]http://uploaded.net/file/sb7qk9zd/BM.2013.1080p.GECKOS.part2.rar[/url]
[url]http://uploaded.net/file/o22z0p9f/BM.2013.1080p.GECKOS.part3.rar[/url]
[url]http://uploaded.net/file/6z1bnn3l/BM.2013.1080p.GECKOS.part4.rar[/url]
[url]http://uploaded.net/file/j8vrnyyo/BM.2013.1080p.GECKOS.part5.rar[/url]
[url]http://uploaded.net/file/471358ut/BM.2013.1080p.GECKOS.part6.rar[/url]
[url]http://uploaded.net/file/3bbyanut/BM.2013.1080p.GECKOS.part7.rar[/url]

[url]http://rapidgator.net/file/d9cd5c1c50bfa763568251b188b237db/BM.2013.1080p.GECKOS.part1.rar.html[/url]
[url]http://rapidgator.net/file/f4b85d9bd61a73158971a8af720080ce/BM.2013.1080p.GECKOS.part2.rar.html[/url]
[url]http://rapidgator.net/file/1db2bddaf68b25c729bf80077e61c87e/BM.2013.1080p.GECKOS.part3.rar.html[/url]
[url]http://rapidgator.net/file/24421ce1c9c1827458cb192597439a0d/BM.2013.1080p.GECKOS.part4.rar.html[/url]
[url]http://rapidgator.net/file/628654e78aaec39f2d48727b13d81503/BM.2013.1080p.GECKOS.part5.rar.html[/url]
[url]http://rapidgator.net/file/a610d22510ce7799a4e76c3e52208aef/BM.2013.1080p.GECKOS.part6.rar.html[/url]
[url]http://rapidgator.net/file/9a283edd44ac90be0363c230da979d23/BM.2013.1080p.GECKOS.part7.rar.html[/url]

[url]http://ryushare.com/itkftmfn2jm4/BM.2013.1080p.GECKOS.part1.rar[/url]
[url]http://ryushare.com/1aanu64olpvd/BM.2013.1080p.GECKOS.part2.rar[/url]
[url]http://ryushare.com/vx2qrfhrytgg/BM.2013.1080p.GECKOS.part3.rar[/url]
[url]http://ryushare.com/3ezy2d4vtjy2/BM.2013.1080p.GECKOS.part4.rar[/url]
[url]http://ryushare.com/l5yewrf0rxp2/BM.2013.1080p.GECKOS.part5.rar[/url]
[url]http://ryushare.com/z98gbbcrpvqf/BM.2013.1080p.GECKOS.part6.rar[/url]
[url]http://ryushare.com/v49p0ueo8210/BM.2013.1080p.GECKOS.part7.rar[/url]

[url]http://lumfile.com/hc2f6mh771yv/BM.2013.1080p.GECKOS.part1.rar.html[/url]
[url]http://lumfile.com/fpljo9bgxz38/BM.2013.1080p.GECKOS.part2.rar.html[/url]
[url]http://lumfile.com/4hdfn53opnhp/BM.2013.1080p.GECKOS.part3.rar.html[/url]
[url]http://lumfile.com/1b5fktclqfph/BM.2013.1080p.GECKOS.part4.rar.html[/url]
[url]http://lumfile.com/z8rfpakd7vot/BM.2013.1080p.GECKOS.part5.rar.html[/url]
[url]http://lumfile.com/4rpaozzy9335/BM.2013.1080p.GECKOS.part6.rar.html[/url]
[url]http://lumfile.com/4l28gx6nbzh1/BM.2013.1080p.GECKOS.part7.rar.html[/url]

DOWNLOAD 2GB LINKS:
Kod:
[url]http://uploaded.net/file/zew2e2gj/BM.2013.2GB.1080p.GECKOS.part1.rar[/url]
[url]http://uploaded.net/file/aj95s2x8/BM.2013.2GB.1080p.GECKOS.part2.rar[/url]
[url]http://uploaded.net/file/alkzm8jq/BM.2013.2GB.1080p.GECKOS.part3.rar[/url]
[url]http://uploaded.net/file/51wvoqid/BM.2013.2GB.1080p.GECKOS.part4.rar[/url]

[url]http://rapidgator.net/file/ec2f95e9b41a510af904c10da3d00c43/BM.2013.2GB.1080p.GECKOS.part1.rar.html[/url]
[url]http://rapidgator.net/file/38ad496d1b1ba2748a7a086c99ffc815/BM.2013.2GB.1080p.GECKOS.part2.rar.html[/url]
[url]http://rapidgator.net/file/38f408c7c100b8f8760b61111b8004f6/BM.2013.2GB.1080p.GECKOS.part3.rar.html[/url]
[url]http://rapidgator.net/file/4116fa717e907a134c3c1d9ce480ae64/BM.2013.2GB.1080p.GECKOS.part4.rar.html[/url]

[url]http://ryushare.com/uvem32j4shd3/BM.2013.2GB.1080p.GECKOS.part1.rar[/url]
[url]http://ryushare.com/s2x36wp7u2g0/BM.2013.2GB.1080p.GECKOS.part2.rar[/url]
[url]http://ryushare.com/pwoejjxb9uaz/BM.2013.2GB.1080p.GECKOS.part3.rar[/url]
[url]http://ryushare.com/vaeyi9jjhpo3/BM.2013.2GB.1080p.GECKOS.part4.rar[/url]

[url]http://lumfile.com/87yyubn0nep5/BM.2013.2GB.1080p.GECKOS.part1.rar.html[/url]
[url]http://lumfile.com/4v9krvts5bun/BM.2013.2GB.1080p.GECKOS.part2.rar.html[/url]
[url]http://lumfile.com/0yw9uh55t8sx/BM.2013.2GB.1080p.GECKOS.part3.rar.html[/url]
[url]http://lumfile.com/n3u2edga73ul/BM.2013.2GB.1080p.GECKOS.part4.rar.html[/url]

I HAVE BACKUP, DONT WORRY ABOUT DEAD LINKS, PLEASE SEND ME PM, AND I WILL REUP ANY LINK


tnx.jpg
 
Član
Učlanjen(a)
09.05.2011
Poruka
7.549
=
Bad Milo (2013) 1080p BluRay DTS x264 EAGLE
File Size: 6.99 GiB

=

badmilohd.jpg



General
Complete name : Bad.Milo.2013.1080p.BluRay.DTS.x264-EAGLE.mkv
Format : Matroska
Format version : Version 4 / Version 2
File size : 6.99 GiB
Duration : 1h 24mn
Overall bit rate : 11.9 Mbps
Encoded date : UTC 2014-01-16 11:23:33
Writing application : mkvmerge v6.7.0 ('Back to the Ground') 64bit built on Jan 8 2014 15:10:52
Writing library : libebml v1.3.0 + libmatroska v1.4.1

Video
ID : 1
Format : AVC
Format/Info : Advanced Video Codec
Format profile : High@L4.0
Format settings, CABAC : Yes
Format settings, ReFrames : 4 frames
Codec ID : V_MPEG4/ISO/AVC
Duration : 1h 24mn
Bit rate : 10.4 Mbps
Width : 1 920 pixels
Height : 1 036 pixels
Display aspect ratio : 1.85:1
Frame rate mode : Constant
Frame rate : 23.976 fps
Color space : YUV
Chroma subsampling : 4:2:0
Bit depth : 8 bits
Scan type : Progressive
Bits/(Pixel*Frame) : 0.218
Stream size : 5.97 GiB (85%)
Title : MeSeY
Writing library : x264 core 140 r2377 1ca7bb9
Language : English
Default : Yes
Forced : No

Audio
ID : 2
Format : DTS
Format/Info : Digital Theater Systems
Mode : 16
Format settings, Endianness : Big
Codec ID : A_DTS
Duration : 1h 24mn
Bit rate mode : Constant
Bit rate : 1 509 Kbps
Channel count : 6 channels
Channel positions : Front: L C R, Side: L R, LFE
Sampling rate : 48.0 KHz
Bit depth : 24 bits
Compression mode : Lossy
Stream size : 908 MiB (13%)
Title : MeSeY
Language : English
Default : Yes
Forced : No

Kod:
[url]http://www.imdb.com/title/tt2274570/[/url]


vlcsnap-2014-01-18-11h49.png


vlcsnap-2014-01-18-11h49.png


vlcsnap-2014-01-18-11h49.png



SINGLE EXTRACTION | NO PASSWORD | INTERCHANGEABLE LINK:
Kod:
[url]http://uploaded.net/file/3sowhniq/BaDM1l0.1080.EAGLE.part1.rar[/url]
[url]http://uploaded.net/file/l6vrisme/BaDM1l0.1080.EAGLE.part2.rar[/url]
[url]http://uploaded.net/file/uid71inn/BaDM1l0.1080.EAGLE.part3.rar[/url]
[url]http://uploaded.net/file/vaqgkbtd/BaDM1l0.1080.EAGLE.part4.rar[/url]
[url]http://uploaded.net/file/9om7zomx/BaDM1l0.1080.EAGLE.part5.rar[/url]
[url]http://uploaded.net/file/yhgbscyl/BaDM1l0.1080.EAGLE.part6.rar[/url]
[url]http://uploaded.net/file/cf2nz2zv/BaDM1l0.1080.EAGLE.part7.rar[/url]

[url]http://rapidgator.net/file/7761e0d196a340742bdaf67de269e2bc/BaDM1l0.1080.EAGLE.part1.rar.html[/url]
[url]http://rapidgator.net/file/a94eb19be1c02963b9b3974b3cbb6739/BaDM1l0.1080.EAGLE.part2.rar.html[/url]
[url]http://rapidgator.net/file/8915c76c1a24cc8530f37034e68a9eef/BaDM1l0.1080.EAGLE.part3.rar.html[/url]
[url]http://rapidgator.net/file/e48b57775c80291db50f4d96d46ea8ca/BaDM1l0.1080.EAGLE.part4.rar.html[/url]
[url]http://rapidgator.net/file/aa0875401f904e4f7b2385eb43774e68/BaDM1l0.1080.EAGLE.part5.rar.html[/url]
[url]http://rapidgator.net/file/aeec0cee523a9f8884fd3d3c70f7dea4/BaDM1l0.1080.EAGLE.part6.rar.html[/url]
[url]http://rapidgator.net/file/d2040782c2eda157cb53e4fac7dcfa0a/BaDM1l0.1080.EAGLE.part7.rar.html[/url]

[url]http://ryushare.com/tk3a0gyt32pj/BaDM1l0.1080.EAGLE.part1.rar[/url]
[url]http://ryushare.com/xvd7hrhdnogj/BaDM1l0.1080.EAGLE.part2.rar[/url]
[url]http://ryushare.com/rg2j03ni6cmq/BaDM1l0.1080.EAGLE.part3.rar[/url]
[url]http://ryushare.com/zz5fl3yognfs/BaDM1l0.1080.EAGLE.part4.rar[/url]
[url]http://ryushare.com/qdut4zyfh5q6/BaDM1l0.1080.EAGLE.part5.rar[/url]
[url]http://ryushare.com/wzo2oixxjk3n/BaDM1l0.1080.EAGLE.part6.rar[/url]
[url]http://ryushare.com/izjx94514eac/BaDM1l0.1080.EAGLE.part7.rar[/url]

[url]http://lumfile.com/pd5dg1uxrepu/BaDM1l0.1080.EAGLE.part1.rar.html[/url]
[url]http://lumfile.com/k1vqt798ys99/BaDM1l0.1080.EAGLE.part2.rar.html[/url]
[url]http://lumfile.com/zo3rdg3alfof/BaDM1l0.1080.EAGLE.part3.rar.html[/url]
[url]http://lumfile.com/4exenkist5dp/BaDM1l0.1080.EAGLE.part4.rar.html[/url]
[url]http://lumfile.com/huyxkoerssmo/BaDM1l0.1080.EAGLE.part5.rar.html[/url]
[url]http://lumfile.com/ifnqtz2nws2h/BaDM1l0.1080.EAGLE.part6.rar.html[/url]
[url]http://lumfile.com/lsgv8su921nc/BaDM1l0.1080.EAGLE.part7.rar.html[/url]
 
Top