Šta je novo?
Član
Učlanjen(a)
09.05.2011
Poruka
7.549
=====
Bad Meat (2011) 720p BluRay x264-VETO
File Size: 3.28 GiB
=====


badmeat.jpg



General
Complete name : R:\Bad.Meat.2011.720p.BluRay.x264-VETO\veto-badmeat-720p.mkv
Format : Matroska
Format version : Version 2
File size : 3.28 GiB
Duration : 1h 23mn
Overall bit rate : 5 640 Kbps
Writing application : mkvmerge v4.1.1 ('Bouncin' Back') built on Jul 3 2010 22:54:08
Writing library : libebml v1.0.0 + libmatroska v1.0

Video
ID : 1
Format : AVC
Format/Info : Advanced Video Codec
Format profile : High@L4.1
Format settings, CABAC : Yes
Format settings, ReFrames : 5 frames
Codec ID : V_MPEG4/ISO/AVC
Duration : 1h 23mn
Bit rate : 4 129 Kbps
Width : 1 280 pixels
Height : 720 pixels
Display aspect ratio : 16:9
Frame rate mode : Constant
Frame rate : 23.976 fps
Color space : YUV
Chroma subsampling : 4:2:0
Bit depth : 8 bits
Scan type : Progressive
Bits/(Pixel*Frame) : 0.187
Stream size : 2.33 GiB (71%)
Writing library : x264 core 129 r2245 bc13772
Language : English
Default : Yes
Forced : No

Audio
ID : 2
Format : DTS
Format/Info : Digital Theater Systems
Mode : 16
Format settings, Endianness : Big
Codec ID : A_DTS
Duration : 1h 23mn
Bit rate mode : Constant
Bit rate : 1 509 Kbps
Channel(s) : 2 channels
Channel positions : Front: L R
Sampling rate : 48.0 KHz
Bit depth : 16 bits
Compression mode : Lossy
Stream size : 898 MiB (27%)
Language : English
Default : Yes
Forced : No


Kod:
http://www.imdb.com/title/tt1034010/

veto-badmeat-720ps.jpg


DOWNLOAD:
Kod:
http://www.netload.in/datei7XfpgOBKjo/BaD.M33T.2011.720p.VETO.part1.rar.htm
http://www.netload.in/dateiOVMWLYwMkT/BaD.M33T.2011.720p.VETO.part2.rar.htm
http://www.netload.in/datei5EhHFrrbZN/BaD.M33T.2011.720p.VETO.part3.rar.htm
http://www.netload.in/dateiFCsYbEF5xk/BaD.M33T.2011.720p.VETO.part4.rar.htm

http://rapidgator.net/file/77241123/BaD.M33T.2011.720p.VETO.part1.rar.html
http://rapidgator.net/file/77241206/BaD.M33T.2011.720p.VETO.part2.rar.html
http://rapidgator.net/file/77241282/BaD.M33T.2011.720p.VETO.part3.rar.html
http://rapidgator.net/file/77241060/BaD.M33T.2011.720p.VETO.part4.rar.html

http://uploaded.net/file/1k6zn2dw/BaD.M33T.2011.720p.VETO.part1.rar
http://uploaded.net/file/9kme25g9/BaD.M33T.2011.720p.VETO.part2.rar
http://uploaded.net/file/pdyl1ch7/BaD.M33T.2011.720p.VETO.part3.rar
http://uploaded.net/file/leie2ccd/BaD.M33T.2011.720p.VETO.part4.rar
 
Poslednja izmena od urednika:
Top