Šta je novo?
Član
Učlanjen(a)
09.05.2011
Poruka
7.549
Bad Karma (2012) 720p BluRay x264-SONiDO
File Size: 4.37 GiB



bad.jpg



Kod:
[B]General
Complete name                            : bad.karma.2012.720p.bluray.x264-sonido.mkv
Format                                   : Matroska
Format version                           : Version 2
File size                                : 4.37 GiB
Duration                                 : 1h 27mn
Overall bit rate                         : 7 135 Kbps
Encoded date                             : UTC 2012-11-07 21:24:38
Writing application                      : mkvmerge v5.3.0 ('I could have danced') built on Feb  9 2012 10:38:07
Writing library                          : libebml v1.2.3 + libmatroska v1.3.0


Video
ID                                       : 1
Format                                   : AVC
Format/Info                              : Advanced Video Codec
Format profile                           : High@L4.1
Format settings, CABAC                   : Yes
Format settings, ReFrames                : 5 frames
Codec ID                                 : V_MPEG4/ISO/AVC
Duration                                 : 1h 27mn
Bit rate                                 : 5 631 Kbps
Width                                    : 1 280 pixels
Height                                   : 528 pixels
Display aspect ratio                     : 2.40:1
Frame rate mode                          : Constant
Frame rate                               : 23.976 fps
Color space                              : YUV
Chroma subsampling                       : 4:2:0
Bit depth                                : 8 bits
Scan type                                : Progressive
Bits/(Pixel*Frame)                       : 0.348
Stream size                              : 3.36 GiB (77%)
Writing library                          : x264 core 128 r2216 198a7ea
Language                                 : English
Default                                  : Yes
Forced                                   : No


Audio
ID                                       : 2
Format                                   : DTS
Format/Info                              : Digital Theater Systems
Codec ID                                 : A_DTS
Duration                                 : 1h 27mn
Bit rate mode                            : Constant
Bit rate                                 : 1 510 Kbps
Channel(s)                               : 6 channels
Channel positions                        : Front: L C R, Side: L R, LFE
Sampling rate                            : 48.0 KHz
Bit depth                                : 24 bits
Compression mode                         : Lossy
Stream size                              : 946 MiB (21%)
Language                                 : English
Default                                  : Yes
Forced                                   : No[/B]


Kod:
http://www.imdb.com/title/tt1847548/


vlcsnap-2012-11-08-02h51.png



vlcsnap-2012-11-08-02h57.png



vlcsnap-2012-11-08-02h58.png





DOWNLOAD:
Kod:
http://www.netload.in/dateiVYiAXEZoMZ/bad.karma.2012.720p.bluray.part1.rar.htm
http://www.netload.in/dateibSBja0pMB7/bad.karma.2012.720p.bluray.part2.rar.htm
http://www.netload.in/dateiv9ypdP7tmm/bad.karma.2012.720p.bluray.part3.rar.htm
http://www.netload.in/dateiBJ1OrlXBpy/bad.karma.2012.720p.bluray.part4.rar.htm
http://www.netload.in/dateisPfJ1eHrom/bad.karma.2012.720p.bluray.part5.rar.htm


http://rapidgator.net/file/55127397/bad.karma.2012.720p.bluray.part1.rar.html
http://rapidgator.net/file/55127340/bad.karma.2012.720p.bluray.part2.rar.html
http://rapidgator.net/file/55127357/bad.karma.2012.720p.bluray.part3.rar.html
http://rapidgator.net/file/55127379/bad.karma.2012.720p.bluray.part4.rar.html
http://rapidgator.net/file/55127423/bad.karma.2012.720p.bluray.part5.rar.html
 
Poslednja izmena od urednika:
Top