Šta je novo?
Član
Učlanjen(a)
09.05.2011
Poruka
7.549
************************************************************
Bad Johnson (2014) 720p BluRay x264 PFa
File Size: 4.37 GiB

************************************************************

badj.jpg


INFO:
Kod:
General
Complete name                            : Bad.Johnson.2014.720p.BluRay.x264-PFa\pfa-bj.720p.mkv
Format                                   : Matroska
Format version                           : Version 4 / Version 2
File size                                : 4.34 GiB
Duration                                 : 1h 27mn
Overall bit rate                         : 7 104 Kbps
Encoded date                             : UTC 2014-08-18 11:06:52
Writing application                      : mkvmerge v6.6.0 ('The Edge Of The In Between') built on Dec  1 2013 17:55:00
Writing library                          : libebml v1.3.0 + libmatroska v1.4.1

Video
ID                                       : 1
Format                                   : AVC
Format/Info                              : Advanced Video Codec
Format profile                           : High@L4.1
Format settings, CABAC                   : Yes
Format settings, ReFrames                : 5 frames
Codec ID                                 : V_MPEG4/ISO/AVC
Duration                                 : 1h 27mn
Bit rate                                 : 5 614 Kbps
Width                                    : 1 280 pixels
Height                                   : 720 pixels
Display aspect ratio                     : 16:9
Frame rate mode                          : Constant
Frame rate                               : 23.976 fps
Color space                              : YUV
Chroma subsampling                       : 4:2:0
Bit depth                                : 8 bits
Scan type                                : Progressive
Bits/(Pixel*Frame)                       : 0.254
Stream size                              : 3.33 GiB (77%)
Writing library                          : x264 core 142 r2431 ac76440
Language                                 : English
Default                                  : Yes
Forced                                   : No

Audio
ID                                       : 2
Format                                   : DTS
Format/Info                              : Digital Theater Systems
Mode                                     : 16
Format settings, Endianness              : Big
Codec ID                                 : A_DTS
Duration                                 : 1h 27mn
Bit rate mode                            : Constant
Bit rate                                 : 1 509 Kbps
Channel(s)                               : 6 channels
Channel positions                        : Front: L C R, Side: L R, LFE
Sampling rate                            : 48.0 KHz
Bit depth                                : 24 bits
Compression mode                         : Lossy
Stream size                              : 944 MiB (21%)
Default                                  : Yes
Forced                                   : No

iMDB:
Kod:
http://www.imdb.com/title/tt2091325/

john.png


Single Extraction | No Password | Interchangeable Links: | Working 100% |

Kod:
http://rapidgator.net/file/8ef56e6fb4a784598058cdaa7c678546/PFaBJ720p.part1.rar.html
http://rapidgator.net/file/7a95f69ae61a24de3046cc16d5eb858c/PFaBJ720p.part2.rar.html
http://rapidgator.net/file/92e59cc2a56b9cbc96bfa9509ca66862/PFaBJ720p.part3.rar.html

http://uploaded.net/file/nrwpkotq/PFaBJ720p.part1.rar
http://uploaded.net/file/c7hbznd4/PFaBJ720p.part2.rar
http://uploaded.net/file/s3oclntk/PFaBJ720p.part3.rar

http://k2s.cc/file/fbbb02aa4e648/PFaBJ720p.part1.rar
http://k2s.cc/file/6bf32b5bb47c0/PFaBJ720p.part2.rar
http://k2s.cc/file/b0687d32ca316/PFaBJ720p.part3.rar

https://www.oboom.com/6V100ZJY/PFaBJ720p.part1.rar
https://www.oboom.com/OYPO2L5C/PFaBJ720p.part2.rar
https://www.oboom.com/PXP2CVR8/PFaBJ720p.part3.rar

DOWNLOAD SINGLE LINKS:
Kod:
http://uploaded.net/file/sgbhv29z/pfa-bj.720p.mkv
http://k2s.cc/file/20de537441061/pfa-bj.720p.mkv
https://www.oboom.com/UMGYO8CS/pfa-bj.720p.mkv
43495332458845760398.png

KEEP IN TOUCH FOR LATEST UPLOAD..
Your support encourage me...
 
Top