Šta je novo?
Član
Učlanjen(a)
02.03.2013
Poruka
3.108
Jackass-Bad Grandpa TS NEWSOURCE 720P H264 FLAC-MURDER

811baf2e425e118d1ac1a26b085aba3f.jpg


File: Jackass-Bad.Grandpa.TS.NEWSOURCE.720P.FLAC-MURDER.mkv
Size: 1704326358 bytes (1.59 GiB), duration: 01:24:15, avg.bitrate: 2697 kb/s
Audio: flac, 44100 Hz, stereo
Video: h264, yuv420p, 1280x712, 25.00 fps(r) (eng)

Jackass_Bad_Grandpa_TS_NEWSOURCE_720_P_FLAC_MURDE.jpg


If U Like My Post Willing To Buy Premium For High Speed Resumable downloads Pls BuY Premium From This Links



Kod:
[url]http://rapidgator.net/file/0fbc919dc541041ebfec583ae827d5a3/Jackass-Bad.Grandpa.TS.NEWSOURCE.720P.FLAC-MURDER.mkv.part1.rar.html[/url]
[url]http://rapidgator.net/file/dc2b2907d9a0746b0f05d5f6680b667b/Jackass-Bad.Grandpa.TS.NEWSOURCE.720P.FLAC-MURDER.mkv.part2.rar.html[/url]

Kod:
[url]http://k2s.cc/file/529fa99a1ec31/Jackass-Bad.Grandpa.TS.NEWSOURCE.720P.FLAC-MURDER.mkv.part1.rar[/url]
[url]http://k2s.cc/file/529fa98c59bb5/Jackass-Bad.Grandpa.TS.NEWSOURCE.720P.FLAC-MURDER.mkv.part2.rar[/url]

 
Poslednja izmena od urednika:
Član
Učlanjen(a)
02.03.2013
Poruka
3.108
Bad Grandpa 2013 TS XViD-VAiN


811baf2e425e118d1ac1a26b085aba3f.jpg


File: Bad.Grandpa.2013.TS.XViD-VAiN.avi
Size: 1471045632 bytes (1.37 GiB), duration: 01:24:15, avg.bitrate: 2328 kb/s
Audio: mp3, 48000 Hz, stereo, 128 kb/s
Video: mpeg4, yuv420p, 720x384, 25.00 fps(r)


Bad_Grandpa_2013_TS_XVi_D_VAi_N_s.jpg


If U Like My Post Willing To Buy Premium For High Speed Resumable downloads Pls BuY Premium From This Links

Kod:
[url]http://lumfile.com/4b80t9b34kl1/Bad.Grandpa.2013.TS.XViD-VAiN.avi.html[/url]

Kod:
[url]http://k2s.cc/file/52aa4578eae49/Bad.Grandpa.2013.TS.XViD-VAiN.avi.part1.rar[/url]
[url]http://k2s.cc/file/52aa45693b2b9/Bad.Grandpa.2013.TS.XViD-VAiN.avi.part2.rar[/url]

Kod:
[url]http://rapidgator.net/file/dc9b63089f3dc03b736cf25308218bdb/Bad.Grandpa.2013.TS.XViD-VAiN.avi.part1.rar.html[/url]
[url]http://rapidgator.net/file/2750d89300eadc3b17fbc3371c6609d2/Bad.Grandpa.2013.TS.XViD-VAiN.avi.part2.rar.html[/url]

 
Član
Učlanjen(a)
09.05.2011
Poruka
7.549
===============================
Bad Grandpa (2013) UNRATED WEBRip XviD AC3 MAJESTIC
File Size: 3.19 GiB

===============================

ZDdkyXt.jpg


Title: Jackass Presents: Bad Grandpa
Year: 2013
Genre: Comedy
Rating: 6.9 (15,364 votes)
Runtime: 1 h 32 min
Director: Jeff Tremaine
Cast: Johnny Knoxville, Jackson Nicoll, Greg Harris, Georgina Cates
Plot:
Kod:
86-year-old Irving Zisman takes a trip from Nebraska to North Carolina to take his 8 year-old grandson, Billy, back to his real father.


General
Complete name : Bad Grandpa (2013) UNRATED WEBRip XviD AC3 MAJESTIC.avi
Format : AVI
Format/Info : Audio Video Interleave
Format profile : OpenDML
File size : 3.19 GiB
Duration : 1h 42mn
Overall bit rate : 4 458 Kbps
Writing application : VirtualDubMod 1.5.10.2 (build 2540/release)
Writing library : VirtualDubMod build 2540/release

Video
ID : 0
Format : MPEG-4 Visual
Format profile : Advanced [email protected]
Format settings, BVOP : 2
Format settings, QPel : No
Format settings, GMC : No warppoints
Format settings, Matrix : Default (H.263)
Muxing mode : Packed bitstream
Codec ID : XVID
Codec ID/Hint : XviD
Duration : 1h 42mn
Bit rate : 4 065 Kbps
Width : 1 280 pixels
Height : 720 pixels
Display aspect ratio : 16:9
Frame rate : 23.976 fps
Color space : YUV
Chroma subsampling : 4:2:0
Bit depth : 8 bits
Scan type : Progressive
Compression mode : Lossy
Bits/(Pixel*Frame) : 0.184
Stream size : 2.91 GiB (91%)
Writing library : XviD 1.2.1 (UTC 2008-12-04)

Audio
ID : 1
Format : AC-3
Format/Info : Audio Coding 3
Mode extension : CM (complete main)
Format settings, Endianness : Big
Codec ID : 2000
Duration : 1h 42mn
Bit rate mode : Constant
Bit rate : 384 Kbps
Channel count : 6 channels
Channel positions : Front: L C R, Side: L R, LFE
Sampling rate : 48.0 KHz
Bit depth : 16 bits
Compression mode : Lossy
Stream size : 281 MiB (9%)
Alignment : Split accross interleaves
Interleave, duration : 42 ms (1.00 video frame)
Interleave, preload duration : 500 ms

Imdb Url:
Kod:
[url]http://www.imdb.com/title/tt3063516/[/url]
Movie Trailer:
Kod:
[media=youtube]_MSrAwfagG4[/media]


bad.png



DOWNLOAD:
Kod:
[url]http://uploaded.net/file/eyncyfxo/BG.2013.WEBRip.MAJESTIC.part1.rar[/url]
[url]http://uploaded.net/file/zlty8tps/BG.2013.WEBRip.MAJESTIC.part2.rar[/url]
[url]http://uploaded.net/file/793o3vu4/BG.2013.WEBRip.MAJESTIC.part3.rar[/url]
[url]http://uploaded.net/file/g7ln2019/BG.2013.WEBRip.MAJESTIC.part4.rar[/url]

[url]http://rapidgator.net/file/38b52bead8b5ee9a3c80e6c75a9e7f95/BG.2013.WEBRip.MAJESTIC.part1.rar.html[/url]
[url]http://rapidgator.net/file/e48229469d44c598e4bd9dc993ccbbf2/BG.2013.WEBRip.MAJESTIC.part2.rar.html[/url]
[url]http://rapidgator.net/file/838c8d47dafc99f68c2b5070c6212053/BG.2013.WEBRip.MAJESTIC.part3.rar.html[/url]
[url]http://rapidgator.net/file/dbd0a7e34375c8ff057d56dec0fc4e49/BG.2013.WEBRip.MAJESTIC.part4.rar.html[/url]

[url]http://ryushare.com/txtv2w0q4lct/BG.2013.WEBRip.MAJESTIC.part1.rar[/url]
[url]http://ryushare.com/q7zra0pgp5l0/BG.2013.WEBRip.MAJESTIC.part2.rar[/url]
[url]http://ryushare.com/mldek48hhwxq/BG.2013.WEBRip.MAJESTIC.part3.rar[/url]
[url]http://ryushare.com/7esc78isb2mz/BG.2013.WEBRip.MAJESTIC.part4.rar[/url]

[url]http://lumfile.com/k0gmq0v2qvst/BG.2013.WEBRip.MAJESTIC.part1.rar.html[/url]
[url]http://lumfile.com/p7d1mhdyg4hz/BG.2013.WEBRip.MAJESTIC.part2.rar.html[/url]
[url]http://lumfile.com/vwgsrnmta4e6/BG.2013.WEBRip.MAJESTIC.part3.rar.html[/url]
[url]http://lumfile.com/6794do8l4wa9/BG.2013.WEBRip.MAJESTIC.part4.rar.html[/url]
 
Top