Šta je novo?

Bad Ass 2 Bad Asses (2014)

VIP
Učlanjen(a)
30.10.2010
Poruka
1.106
Bad Asses (2014) HDRip X264 AC-3 5.1-PLAYNOW


z17uh17d8fdrkqxz9nms.jpg


Kod:
http://www.imdb.com/title/tt2996648/


Rezija: Craig Moss
Uloge: Danny Trejo, Danny Glover, Andrew Divoff

U nastavku filma iz 2012 "Bad Ass" gledamo dva cuvena Denija, Treja i Glovera. Frank Vega se ovaj put udruzuje sa matorim i dzangrizavim Bernijem, kako bi ponovo isterao svoju pravdu na ulicama LA.

Izvor: iTunes
Velicina: 1.43 GB
Zanr: Action
Video: x264, 640×344 at 1911kbps
Audio: English, AC3 at 384kb/s


wpzTNpU.jpg



Download - Kombinovani 1 GB Linkovi - Firedrive : Uptobox : Netload : Uploaded
Kod:
http://www.firedrive.com/file/C4834B1605D2F8BD
http://www.firedrive.com/file/1D34E131B582BCE9
Kod:
http://uptobox.com/ece72jswtjy1
http://uptobox.com/t5aegwqty5fs
Kod:
http://ul.to/tdw8zb2n
http://ul.to/4tpkc0fu
Kod:
http://netload.in/dateiuhbzEJ0mXM/zajebanlik2014.part1.rar.htm
http://netload.in/dateiyR9BwlCeCf/zajebanlik2014.part2.rar.htm
 
Član
Učlanjen(a)
09.05.2011
Poruka
7.549
************************************************************
Bad Asses (2014) HDRip X264 PLAYNOW
File Size: 1.32 GiB

************************************************************

uto8ebR.jpg


Title: Bad Asses
Year: 2014
Genre: Action
Rating: N/A (N/A votes)
Runtime: 91 min
Director: Craig Moss
Cast: Danny Trejo, Danny Glover, Andrew Divoff, Jacqueline Obradors
Plot:
Kod:
Frank Vega teams up with grumpy old agoraphobic Bernie Pope to kick ass and clean up the streets of L.A.

INFO:

General
Complete name : Bad.Asses.2014.HDRip.X264-PLAYNOW.mp4
Format : MPEG-4
Format profile : Base Media
Codec ID : isom
File size : 1.32 GiB
Duration : 1h 31mn
Overall bit rate : 2 069 Kbps


Video
ID : 1
Format : AVC
Format/Info : Advanced Video Codec
Format profile : [email protected]
Format settings, CABAC : Yes
Format settings, ReFrames : 4 frames
Codec ID : avc1
Codec ID/Info : Advanced Video Coding
Duration : 1h 31mn
Bit rate : 1 911 Kbps
Maximum bit rate : 9 488 Kbps
Width : 640 pixels
Height : 344 pixels
Display aspect ratio : 1.85:1
Frame rate mode : Variable
Frame rate : 23.976 fps
Minimum frame rate : 23.974 fps
Maximum frame rate : 23.981 fps
Color space : YUV
Chroma subsampling : 4:2:0
Bit depth : 8 bits
Scan type : Progressive
Bits/(Pixel*Frame) : 0.362
Stream size : 1.19 GiB (91%)
Writing library : x264 core 130 r2273 b3065e6

Audio
ID : 2
Format : AC-3
Format/Info : Audio Coding 3
Mode extension : CM (complete main)
Format settings, Endianness : Big
Codec ID : ac-3
Duration : 1h 30mn
Bit rate mode : Constant
Bit rate : 192 Kbps
Channel(s) : 2 channels
Channel positions : Front: L R
Sampling rate : 44.1 KHz
Bit depth : 16 bits
Compression mode : Lossy
Stream size : 125 MiB (9%)

iMDB:
Kod:
http://www.imdb.com/title/tt2996648/
Movie Trailer:
Kod:
http://www.youtube.com/watch?v=XNfeAHF3XQ8

vlcsnap-2014-03-25-09h39.png


vlcsnap-2014-03-25-09h40.png


vlcsnap-2014-03-25-09h40.png


Single Extraction | No Password | Interchangeable Links: | Working 100% |

Kod:
http://uploaded.net/file/nwzfufti/BaDaSSeS14.HDRip.PLAYNOW.part1.rar
http://uploaded.net/file/kensokgs/BaDaSSeS14.HDRip.PLAYNOW.part2.rar
http://uploaded.net/file/77imzv5q/BaDaSSeS14.HDRip.PLAYNOW.part3.rar
http://uploaded.net/file/jm2e6vut/BaDaSSeS14.HDRip.PLAYNOW.part4.rar

http://rapidgator.net/file/8ccf4b4e06123474f0ce77a48fabe8fa/BaDaSSeS14.HDRip.PLAYNOW.part1.rar.html
http://rapidgator.net/file/55506c52149f07cc18bb87af17d4f2f7/BaDaSSeS14.HDRip.PLAYNOW.part2.rar.html
http://rapidgator.net/file/24e266f589472695e6ff959ace0133f1/BaDaSSeS14.HDRip.PLAYNOW.part3.rar.html
http://rapidgator.net/file/2760f6f9a54710677d71db1f3315ebec/BaDaSSeS14.HDRip.PLAYNOW.part4.rar.html

http://k2s.cc/file/bac50a1cee4c6/BaDaSSeS14.HDRip.PLAYNOW.part1.rar
http://k2s.cc/file/68eb18e1502fe/BaDaSSeS14.HDRip.PLAYNOW.part2.rar
http://k2s.cc/file/825d04b7682e0/BaDaSSeS14.HDRip.PLAYNOW.part3.rar
http://k2s.cc/file/3d9aef2140d55/BaDaSSeS14.HDRip.PLAYNOW.part4.rar

https://www.oboom.com/VNVL7G7J/BaDaSSeS14.HDRip.PLAYNOW.part1.rar
https://www.oboom.com/3CQN47BF/BaDaSSeS14.HDRip.PLAYNOW.part2.rar
https://www.oboom.com/O4EF5VWX/BaDaSSeS14.HDRip.PLAYNOW.part3.rar
https://www.oboom.com/3G6J8BQF/BaDaSSeS14.HDRip.PLAYNOW.part4.rar


I HAVE BACKUP, DONT WORRY ABOUT DEAD LINKS, PLEASE SEND ME PM, AND I WILL REUP ANY LINK
 
Član
Učlanjen(a)
03.10.2012
Poruka
1.154
Bad Ass 2 Bad Asses 2014 720p HDRip XviD AC3-AQOS


MV5BMTY2ODcyODQzNV5BMl5BanBnXkFtZTgwOTAzOTczMTEXkQru.jpg


Release Name: Bad.Ass.2.Bad.Asses.2014.720p.HDRip.XviD.AC3-AQOS
Size: 2.5 GB
Video: AVi | 1280 x 688 | 3940 Kbps
Audio: English | AC3 | 384 kbps
Runtime: 1h 31 mn
Subtitles: English,portuguese,Sapnish,French


Kod:
http://www.imdb.com/title/tt2996648/

Genre: Action
IMDB Rating: –/10
Directed by: Craig Moss
Starring: Danny Trejo, Danny Glover, Andrew Divoff

Frank Vega teams up with grumpy old agoraphobic Bernie Pope to kick ass and clean up the streets of L.A.



image.png

imagenYLME.png

imageFABKS.png






Kod:
http://freakshare.com/files/xb5pioym/aqos-badass2.720.part1.rar.html
http://freakshare.com/files/be46h1sz/aqos-badass2.720.part2.rar.html
http://freakshare.com/files/fmh21785/aqos-badass2.720.part3.rar.html


http://bitshare.com/files/a0ji53yb/aqos-badass2.720.part1.rar.html
http://bitshare.com/files/ocpuxw9o/aqos-badass2.720.part2.rar.html
http://bitshare.com/files/8wf3e3dg/aqos-badass2.720.part3.rar.html


http://fileom.com/ko1bwk7829fg/aqos-badass2.720.part1.rar.html
http://fileom.com/eqjbnct790l8/aqos-badass2.720.part2.rar.html
http://fileom.com/aqfhrm2ak0qo/aqos-badass2.720.part3.rar.html
 
Top