Šta je novo?
Član
Učlanjen(a)
09.05.2011
Poruka
7.549
Backwards (2012) LIMITED DVDRip XviD MARGiN
File Size: 699 MiB



backwards.jpg



info.png



General
Complete name : margin-backwards.avi
Format : AVI
Format/Info : Audio Video Interleave
File size : 699 MiB
Duration : 1h 28mn
Overall bit rate mode : Variable
Overall bit rate : 1 101 Kbps


Video
ID : 0
Format : MPEG-4 Visual
Format profile : Advanced [email protected]
Format settings, BVOP : 1
Format settings, QPel : No
Format settings, GMC : No warppoints
Format settings, Matrix : Default (H.263)
Codec ID : XVID
Codec ID/Hint : XviD
Duration : 1h 28mn
Bit rate : 945 Kbps
Width : 640 pixels
Height : 352 pixels
Display aspect ratio : 16:9
Frame rate : 23.976 fps
Color space : YUV
Chroma subsampling : 4:2:0
Bit depth : 8 bits
Scan type : Progressive
Compression mode : Lossy
Bits/(Pixel*Frame) : 0.175
Stream size : 600 MiB (86%)
Writing library : XviD 1.2.1 (UTC 2008-12-04)


Audio
ID : 1
Format : MPEG Audio
Format version : Version 1
Format profile : Layer 3
Mode : Joint stereo
Mode extension : MS Stereo
Codec ID : 55
Codec ID/Hint : MP3
Duration : 1h 28mn
Bit rate mode : Variable
Bit rate : 143 Kbps
Nominal bit rate : 160 Kbps
Channel(s) : 2 channels
Sampling rate : 48.0 KHz
Compression mode : Lossy
Stream size : 91.0 MiB (13%)
Alignment : Aligned on interleaves
Interleave, duration : 24 ms (0.58 video frame)
Interleave, preload duration : 163 ms
Title : back
Writing library : LAME3.99r
Encoding settings : -m j -V 4 -q 2 -lowpass 17.5 --abr 160


Kod:
http://www.imdb.com/title/tt2005153/


screenshots.png



margin-backwardss.jpg





DOWNLOAD:
Kod:
http://netload.in/dateigx1RBgUvkr/BackWardS.DVDRip.part1.rar.htm
http://netload.in/dateiK2217EocbP/BackWardS.DVDRip.part2.rar.htm
http://netload.in/dateijNsUQEuDVK/BackWardS.DVDRip.part3.rar.htm


http://rapidgator.net/file/62475605/BackWardS.DVDRip.part1.rar.html
http://rapidgator.net/file/62475606/BackWardS.DVDRip.part2.rar.html
http://rapidgator.net/file/62475571/BackWardS.DVDRip.part3.rar.html


http://extabit.com/file/27t0dutsamj0u/BackWardS.DVDRip.part1.rar
http://extabit.com/file/27t0dutsamj1q/BackWardS.DVDRip.part2.rar
http://extabit.com/file/27t0dutsamj26/BackWardS.DVDRip.part3.rar


http://lumfile.com/98ue76lv9264/BackWardS.DVDRip.part1.rar.html
http://lumfile.com/zes9qn544d0w/BackWardS.DVDRip.part2.rar.html
http://lumfile.com/yank2e15w4hq/BackWardS.DVDRip.part3.rar.html
 
Top