Šta je novo?
Član
Učlanjen(a)
09.05.2011
Poruka
7.549
Backtrack (2015) 720p WEB-DL x264 AC3 ETRG
File Size: 2.65 GiB

1HCAc9ccsw8jRWwhV45UqmWrYJK.jpg


RELEAsEN0TEs
Kod:
General
Complete name                  : Backtrack.2015.720p.WEB-DL.x264.AC3-ETRG.mkv
Format                         : Matroska
Format version                 : Version 4 / Version 2
File size                      : 2.65 GiB
Duration                       : 1h 26mn
Overall bit rate               : 4 407 Kbps
Encoded date                   : UTC 2016-01-31 13:28:40
Writing application            : mkvmerge v6.7.0 ('Back to the Ground') 64bit built on Jan  8 2014 15:10:52
Writing library                : libebml v1.3.0 + libmatroska v1.4.1

Video
ID                             : 1
Format                         : AVC
Format/Info                    : Advanced Video Codec
Format profile                 : [email protected]
Format settings, CABAC         : No
Format settings, ReFrames      : 2 frames
Codec ID                       : V_MPEG4/ISO/AVC
Duration                       : 1h 26mn
Bit rate                       : 3 935 Kbps
Width                          : 960 pixels
Height                         : 530 pixels
Display aspect ratio           : 2.40:1
Frame rate mode                : Constant
Frame rate                     : 25.000 fps
Color space                    : YUV
Chroma subsampling             : 4:2:0
Bit depth                      : 8 bits
Scan type                      : Progressive
Bits/(Pixel*Frame)             : 0.309
Stream size                    : 2.37 GiB (89%)
Language                       : English
Default                        : Yes
Forced                         : No
Color primaries                : BT.709
Transfer characteristics       : BT.709
Matrix coefficients            : BT.709

Audio
ID                             : 2
Format                         : AC-3
Format/Info                    : Audio Coding 3
Mode extension                 : CM (complete main)
Format settings, Endianness    : Big
Codec ID                       : A_AC3
Duration                       : 1h 26mn
Bit rate mode                  : Constant
Bit rate                       : 384 Kbps
Channel count                  : 6 channels
Channel positions              : Front: L C R, Side: L R, LFE
Sampling rate                  : 48.0 KHz
Bit depth                      : 16 bits
Compression mode               : Lossy
Stream size                    : 236 MiB (9%)
Language                       : English
Default                        : Yes
Forced                         : No

IMDB Ratings : 5.9/10 >> 207 users >> Top 250: #N/A
Kod:
http://www.imdb.com/title/tt2784936/

sCREENsH0Ts

image.png


image.png


image.png


D0WNL0AD
Kod:
http://rapidgator.net/file/c8ee363e9c9f2856461b88873cff356d/Backtrack.720p.ETRG.part1.rar.html
http://rapidgator.net/file/9368021b8f1aed7534626ea0db40734c/Backtrack.720p.ETRG.part2.rar.html
http://rapidgator.net/file/6b6b9d5186170b93456e611e54c375dd/Backtrack.720p.ETRG.part3.rar.html
http://rapidgator.net/file/f7ba30aa0c76981dbc1d3db622fe53e5/Backtrack.720p.ETRG.part4.rar.html

http://uploaded.net/file/ysmuac5x/Backtrack.720p.ETRG.part1.rar
http://uploaded.net/file/plggbqso/Backtrack.720p.ETRG.part2.rar
http://uploaded.net/file/cz2a2vh6/Backtrack.720p.ETRG.part3.rar
http://uploaded.net/file/qjns9oec/Backtrack.720p.ETRG.part4.rar

http://k2s.cc/file/3de7a4cc0cdf1/Backtrack.720p.ETRG.part1.rar
http://k2s.cc/file/617318b3d72e8/Backtrack.720p.ETRG.part2.rar
http://k2s.cc/file/29f5b49598cb8/Backtrack.720p.ETRG.part3.rar
http://k2s.cc/file/e454675e3f47d/Backtrack.720p.ETRG.part4.rar

http://nitroflare.com/view/9EE6B2255AE7473/Backtrack.720p.ETRG.part1.rar
http://nitroflare.com/view/2E8BFD6EBB3F770/Backtrack.720p.ETRG.part2.rar
http://nitroflare.com/view/B8A4C1301DBAD6F/Backtrack.720p.ETRG.part3.rar
http://nitroflare.com/view/8CE089CC1EC9B25/Backtrack.720p.ETRG.part4.rar
 
Član
Učlanjen(a)
09.05.2011
Poruka
7.549
4ffc79cb512fd59c1a98aaaaf329be46.jpg

Backtrack (2015) DVDRip x264 AC3 UNDERCOVER
Video: MPEG4 Video (H264) | 720x304 | 23.976fps | 2000 Kbps | 2.35:1
Audio: English | Dolby AC3 48000Hz stereo 6ch | 448 kbps | Length: 1H:30M
Genre: Drama | Mystery | Thriller
File Size: 1.54 GiB
PLOT: Psychologist Peter Bower's life is thrown into turmoil when he discovers a strange secret about his patients. Risking his own sanity, Peter delves into his past to uncover a terrifying ...
Stars: Adrien Brody | Sam Neill | Robin McLeavy​

IMDB Ratings: 5.9/10 >> 3.838 users >> Top 250: #N/A
Metascore: 43/100
Kod:
http://www.imdb.com/title/tt2784936/

sCREENsH0Ts

backa89d9.png

D0WNL0AD
Kod:
http://rapidgator.net/file/f0eff6485ec645f0108ad2f501b6beac/Backtrack.2015.DVDRip.UNDERCOVER.part1.rar.html
http://rapidgator.net/file/f498ebb6945f28da4466bd45208511d2/Backtrack.2015.DVDRip.UNDERCOVER.part2.rar.html
http://rapidgator.net/file/f982e99678ef86456078ca60622b0abd/Backtrack.2015.DVDRip.UNDERCOVER.part3.rar.html

http://uploaded.net/file/fcmc001h/Backtrack.2015.DVDRip.UNDERCOVER.part1.rar
http://uploaded.net/file/di6zxe9j/Backtrack.2015.DVDRip.UNDERCOVER.part2.rar
http://uploaded.net/file/iylyuzjp/Backtrack.2015.DVDRip.UNDERCOVER.part3.rar

http://k2s.cc/file/8f570985c88e5/Backtrack.2015.DVDRip.UNDERCOVER.part1.rar
http://k2s.cc/file/cc15441af6b4a/Backtrack.2015.DVDRip.UNDERCOVER.part2.rar
http://k2s.cc/file/38a32383d5824/Backtrack.2015.DVDRip.UNDERCOVER.part3.rar

http://nitroflare.com/view/ECA5930FC271DAE/Backtrack.2015.DVDRip.UNDERCOVER.part1.rar
http://nitroflare.com/view/ED11D9EB440ED25/Backtrack.2015.DVDRip.UNDERCOVER.part2.rar
http://nitroflare.com/view/8979B90AE89D39D/Backtrack.2015.DVDRip.UNDERCOVER.part3.rar
 
Top