Šta je novo?

Bachelor Party in the Bungalow of the Damned (2008)

LEGEND
Učlanjen(a)
05.05.2009
Poruka
4.736
Bachelor Party in the Bungalow of the Damned (2008)

22WSf.jpg



A bachelor party planner learns that nothing comes for free after gaining access to a posh Hamptons bungalow and preparing to celebrate his best buddy's marriage with a wild weekend of drugs and debauchery. Chuck is about to get married, but before that happens, Sammy is going to make sure he has the time of his life. In order to gain access to the ultimate party pad, however, Sammy is obligated to invite prude yet sexually ambiguous caretaker Gordon to take part in the festivities. When the three sexy strippers Sammy hired show up on their doorstep, it appears that the evening has gotten off to the perfect start. But no one expected Chuck's fiancée to show up, too, and when that happens, all hell breaks loose as the children of the damned come out to play.


Bachelor Party in the Bungalow of the Damned (Video 2008) - IMDb


:download:




Kod:
http://rapidshare.com/files/171901937/Bachelor.Party.In.The.Bungalow.Of.The.Damned.part1.rar
http://rapidshare.com/files/172039301/Bachelor.Party.In.The.Bungalow.Of.The.Damned.part2.rar
http://rapidshare.com/files/172048848/Bachelor.Party.In.The.Bungalow.Of.The.Damned.part3.rar
http://rapidshare.com/files/172059002/Bachelor.Party.In.The.Bungalow.Of.The.Damned.part4.rar
http://rapidshare.com/files/172069497/Bachelor.Party.In.The.Bungalow.Of.The.Damned.part5.rar
http://rapidshare.com/files/171885356/Bachelor.Party.In.The.Bungalow.Of.The.Damned.part6.rar
http://rapidshare.com/files/171893585/Bachelor.Party.In.The.Bungalow.Of.The.Damned.part7.rar


:info:



Kod:
http://www.allmovie.com/work/467963
 
Poslednja izmena od urednika:
__John__Wayne__
LEGEND
Učlanjen(a)
26.09.2009
Poruka
7.371
Bachelor Party In The Bungalow Of The Damned [2008] DVDRip XViD-SPRiNTER

nujtpzocptirbulnl45.jpg


infoh.png


Kod:
http://www.imdb.com/title/tt1260562

Format : AVI
Format/Info : Audio Video Interleave
File size : 697 MiB
Duration : 1h 16mn
Overall bit rate : 1 282 Kbps
Writing application : Nandub v1.0rc2
Writing library : Nandub build 1852/release

Video
ID : 0
Format : MPEG-4 Visual
Format profile : [email protected]
Format settings, BVOP : No
Format settings, QPel : No
Format settings, GMC : No warppoints
Format settings, Matrix : Default (H.263)
Codec ID : XVID
Codec ID/Hint : XviD
Duration : 1h 16mn
Bit rate : 1 128 Kbps
Width : 576 pixels
Height : 320 pixels
Display aspect ratio : 16:9
Frame rate : 23.976 fps
Resolution : 24 bits
Colorimetry : 4:2:0
Scan type : Progressive
Bits/(Pixel*Frame) : 0.255
Stream size : 613 MiB (88%)
Writing library : XviD 1.2.1 (UTC 2008-12-04)

Audio
ID : 1
Format : MPEG Audio
Format version : Version 1
Format profile : Layer 3
Codec ID : 55
Codec ID/Hint : MP3
Duration : 1h 16mn
Bit rate mode : Variable
Bit rate : 141 Kbps
Channel(s) : 2 channels
Sampling rate : 48.0 KHz
Resolution : 16 bits
Stream size : 76.8 MiB (11%)
Alignment : Aligned on interleaves
Interleave, duration : 24 ms (0.58 video frame)
Interleave, preload duration : 150 ms
Writing library : LAME3.89 (alpha)

screenshotrm.png


f2iimgyp68.png


f6efk73rg5.png


441xj0v025.png


downloadoh.png


Kod:
http://www.fileserve.com/file/wUN9t58/Bachelor.Party.In.The.Bungalow.Of.The.Damned.2008.DVDRip.XViD.SerbianForum.org.avi

passwordk.png


Kod:
No Password
 
Top