Šta je novo?

Baby Mama (2008)

  • Začetnik teme CyberWarez
  • Datum pokretanja
CyberWarez

CyberWarez

Član
Učlanjen(a)
09.05.2011
Poruka
7.549
=
Baby Mama (2008) 720p Bluray x264-SEPTiC
File Size: 4.37 GiB

=




General
Complete name : Baby.Mama.720p.Bluray.x264-SEPTiC\s-babymama.mkv
Format : Matroska
Format version : Version 1
File size : 4.37 GiB
Duration : 1h 38mn
Overall bit rate : 6 324 Kbps
Encoded date : UTC 2008-09-01 15:57:18
Writing application : mkvmerge v2.0.2 ('You're My Flame') built on Feb 21 2007 23:40:55
Writing library : libebml v0.7.7 + libmatroska v0.8.1

Video
ID : 1
Format : AVC
Format/Info : Advanced Video Codec
Format profile : [email protected]
Format settings, CABAC : Yes
Format settings, ReFrames : 5 frames
Codec ID : V_MPEG4/ISO/AVC
Duration : 1h 38mn
Bit rate : 4 812 Kbps
Width : 1 280 pixels
Height : 688 pixels
Display aspect ratio : 1.85:1
Frame rate mode : Constant
Frame rate : 23.976 fps
Color space : YUV
Chroma subsampling : 4:2:0
Bit depth : 8 bits
Scan type : Progressive
Bits/(Pixel*Frame) : 0.228
Stream size : 3.24 GiB (74%)
Writing library : x264 core 61 r955 d4265bb
Language : English
Default : Yes
Forced : No

Audio
ID : 2
Format : DTS
Format/Info : Digital Theater Systems
Mode : 16
Format settings, Endianness : Big
Codec ID : A_DTS
Duration : 1h 38mn
Bit rate mode : Constant
Bit rate : 1 509 Kbps
Channel(s) : 6 channels
Channel positions : Front: L C R, Side: L R, LFE
Sampling rate : 48.0 KHz
Bit depth : 24 bits
Compression mode : Lossy
Stream size : 1.04 GiB (24%)
Default : Yes
Forced : No
Kod:
http://www.imdb.com/title/tt0871426/







DOWNLOAD:
Kod:
http://lumfile.se/0s0ntsd22ewg/_.Mama.720p.SEPTiC.part1.rar.html
http://lumfile.se/a9fg7fnve9vd/_.Mama.720p.SEPTiC.part2.rar.html
http://lumfile.se/rkh5w2arzb9q/_.Mama.720p.SEPTiC.part3.rar.html

http://uploaded.net/file/33x6vup7/Baby.Mama.720p.SEPTiC.part1.rar
http://uploaded.net/file/4mv4h3s3/Baby.Mama.720p.SEPTiC.part2.rar
http://uploaded.net/file/he5jbrok/Baby.Mama.720p.SEPTiC.part3.rar

http://netload.in/dateiwj9XH2310f/Baby.Mama.720p.SEPTiC.part1.rar.htm
http://netload.in/dateiECIvJoa88K/Baby.Mama.720p.SEPTiC.part2.rar.htm
http://netload.in/dateiXIMVypjCUi/Baby.Mama.720p.SEPTiC.part3.rar.htm
 
Poslednja izmena od urednika:
Top