Šta je novo?

Awakenings (1990)

  • Začetnik teme CyberWarez
  • Datum pokretanja
CyberWarez

CyberWarez

Član
Učlanjen(a)
09.05.2011
Poruka
7.549
=
Awakenings (1990) 720p BluRay X264-AMIABLE
File Size: 5.46 GiB

=




General
Complete name : Awakenings.1990.720p.BluRay.X264-AMIABLE.mkv
Format : Matroska
Format version : Version 2
File size : 5.46 GiB
Duration : 2h 0mn
Overall bit rate : 6 480 Kbps
Writing application : x264.exe
Writing library : mkv2rls v1.3 (date: 2010 aug 28)

Video
ID : 1
Format : AVC
Format/Info : Advanced Video Codec
Format profile : [email protected]
Format settings, CABAC : Yes
Format settings, ReFrames : 5 frames
Codec ID : V_MPEG4/ISO/AVC
Duration : 2h 0mn
Bit rate : 4 972 Kbps
Width : 1 280 pixels
Height : 696 pixels
Display aspect ratio : 1.85:1
Frame rate mode : Constant
Frame rate : 23.976 fps
Color space : YUV
Chroma subsampling : 4:2:0
Bit depth : 8 bits
Scan type : Progressive
Bits/(Pixel*Frame) : 0.233
Stream size : 4.08 GiB (75%)
Writing library : x264 core 114 r1913 5fd3dce
Language : English
Default : Yes
Forced : No

Audio
ID : 2
Format : DTS
Format/Info : Digital Theater Systems
Mode : 16
Format settings, Endianness : Big
Codec ID : A_DTS
Duration : 2h 0mn
Bit rate mode : Constant
Bit rate : 1 509 Kbps
Channel(s) : 6 channels
Channel positions : Front: L C R, Side: L R, LFE
Sampling rate : 48.0 KHz
Bit depth : 24 bits
Compression mode : Lossy
Stream size : 1.27 GiB (23%)
Language : English
Default : Yes
Forced : No
Kod:
http://www.imdb.com/title/tt0099077/









DOWNLOAD:
Kod:
http://uploaded.net/file/m5kiqovo/Awakenings.1990.720p.AMIABLE.part1.rar
http://uploaded.net/file/6f3227ji/Awakenings.1990.720p.AMIABLE.part2.rar
http://uploaded.net/file/1dpg6179/Awakenings.1990.720p.AMIABLE.part3.rar
http://uploaded.net/file/biz10jlu/Awakenings.1990.720p.AMIABLE.part4.rar
http://uploaded.net/file/glhtdi9x/Awakenings.1990.720p.AMIABLE.part5.rar
http://uploaded.net/file/usmlsyor/Awakenings.1990.720p.AMIABLE.part6.rar

http://rapidgator.net/file/e71aaf82e99611549b545620baa94e24/Awakenings.1990.720p.AMIABLE.part1.rar.html
http://rapidgator.net/file/050baf877a6f036b8345da2523dc0eaf/Awakenings.1990.720p.AMIABLE.part2.rar.html
http://rapidgator.net/file/f8a6a3eca9de977bc7a223c483c08713/Awakenings.1990.720p.AMIABLE.part3.rar.html
http://rapidgator.net/file/ceee01c23e14f29d1bf12ff7fe778de3/Awakenings.1990.720p.AMIABLE.part4.rar.html
http://rapidgator.net/file/1bd0a09c74423979fa4e7ceeb905a0e8/Awakenings.1990.720p.AMIABLE.part5.rar.html
http://rapidgator.net/file/8a187fd9dd52935891b11583de4af720/Awakenings.1990.720p.AMIABLE.part6.rar.html

http://ryushare.com/fmz2prn3yxbf/Awakenings.1990.720p.AMIABLE.part1.rar
http://ryushare.com/8wtbiibkirk8/Awakenings.1990.720p.AMIABLE.part2.rar
http://ryushare.com/8cx2g58do0hd/Awakenings.1990.720p.AMIABLE.part3.rar
http://ryushare.com/wn84d0vxnraj/Awakenings.1990.720p.AMIABLE.part4.rar
http://ryushare.com/l6c0h37tms1a/Awakenings.1990.720p.AMIABLE.part5.rar
http://ryushare.com/vicitqyvzzlx/Awakenings.1990.720p.AMIABLE.part6.rar

http://lumfile.com/n3lmiod5u9x9/Awakenings.1990.720p.AMIABLE.part1.rar.html
http://lumfile.com/ioeoqq65xtru/Awakenings.1990.720p.AMIABLE.part2.rar.html
http://lumfile.com/cf4py60bs1vp/Awakenings.1990.720p.AMIABLE.part3.rar.html
http://lumfile.com/1u3u6o7cu00v/Awakenings.1990.720p.AMIABLE.part4.rar.html
http://lumfile.com/1j8cvptwb41f/Awakenings.1990.720p.AMIABLE.part5.rar.html
http://lumfile.com/zzo2yytefntz/Awakenings.1990.720p.AMIABLE.part6.rar.html
 
Top