Šta je novo?

Avalanche Sharks (2013)

  • Začetnik teme CyberWarez
  • Datum pokretanja
CyberWarez

CyberWarez

Član
Učlanjen(a)
09.05.2011
Poruka
7.549
************************************************************
Avalanche Sharks (2013) 720p BluRay x264 iFPD
File Size: 3.28 GiB

************************************************************



INFO:
Kod:
General
Complete name                            : ifpd-snowsharks.us-720p.mkv
Format                                   : Matroska
Format version                           : Version 4 / Version 2
File size                                : 3.28 GiB
Duration                                 : 1h 22mn
Overall bit rate                         : 5 715 Kbps
Encoded date                             : UTC 2014-05-21 03:40:58
Writing application                      : mkvmerge v6.9.1 ('Blue Panther') 64bit built on Apr 18 2014 18:23:38
Writing library                          : libebml v1.3.0 + libmatroska v1.4.1

Video
ID                                       : 1
Format                                   : AVC
Format/Info                              : Advanced Video Codec
Format profile                           : [email protected]
Format settings, CABAC                   : Yes
Format settings, ReFrames                : 5 frames
Codec ID                                 : V_MPEG4/ISO/AVC
Duration                                 : 1h 22mn
Bit rate                                 : 4 204 Kbps
Width                                    : 1 280 pixels
Height                                   : 720 pixels
Display aspect ratio                     : 16:9
Frame rate mode                          : Constant
Frame rate                               : 23.976 fps
Color space                              : YUV
Chroma subsampling                       : 4:2:0
Bit depth                                : 8 bits
Scan type                                : Progressive
Bits/(Pixel*Frame)                       : 0.190
Stream size                              : 2.35 GiB (72%)
Title                                    : Avalanche Sharks (2013)
Writing library                          : x264 core 142 r2431 ac76440
Default                                  : Yes
Forced                                   : No

Audio
ID                                       : 2
Format                                   : DTS
Format/Info                              : Digital Theater Systems
Mode                                     : 16
Format settings, Endianness              : Big
Codec ID                                 : A_DTS
Duration                                 : 1h 22mn
Bit rate mode                            : Constant
Bit rate                                 : 1 509 Kbps
Channel(s)                               : 6 channels
Channel positions                        : Front: L C R, Side: L R, LFE
Sampling rate                            : 48.0 KHz
Bit depth                                : 24 bits
Compression mode                         : Lossy
Stream size                              : 886 MiB (26%)
Title                                    : DTS English
Language                                 : English
Default                                  : Yes
Forced                                   : No
iMDB:
Kod:
http://www.imdb.com/title/tt2622826/


Single Extraction | No Password | Interchangeable Links: | Working 100% |

Kod:
http://ul.to/zhglaxww/Avalanche.Sharks.2013.720p.iFPD.part1.rar
http://ul.to/p4uequxr/Avalanche.Sharks.2013.720p.iFPD.part2.rar
http://ul.to/8nx2si7t/Avalanche.Sharks.2013.720p.iFPD.part3.rar
http://ul.to/hwgdpgfx/Avalanche.Sharks.2013.720p.iFPD.part4.rar

http://rapidgator.net/file/0f34ca116ed411a46fb5e95846905f9f/Avalanche.Sharks.2013.720p.iFPD.part1.rar.html
http://rapidgator.net/file/323f23b7dd658398c838ee24beb680fe/Avalanche.Sharks.2013.720p.iFPD.part2.rar.html
http://rapidgator.net/file/0663c5e38a0a0cac284ff7188523c1ea/Avalanche.Sharks.2013.720p.iFPD.part3.rar.html
http://rapidgator.net/file/3bdc3c7d75cb2b78fa63572b63322dd1/Avalanche.Sharks.2013.720p.iFPD.part4.rar.html

http://terafile.co/921d37760560/Avalanche.Sharks.2013.720p.iFPD.part1.rar
http://terafile.co/687124237936/Avalanche.Sharks.2013.720p.iFPD.part2.rar
http://terafile.co/032d4501d626/Avalanche.Sharks.2013.720p.iFPD.part3.rar
http://terafile.co/420412713097/Avalanche.Sharks.2013.720p.iFPD.part4.rar

http://k2s.cc/file/be4e9269f1439/Avalanche.Sharks.2013.720p.iFPD.part1.rar
http://k2s.cc/file/65fa2b71d07b7/Avalanche.Sharks.2013.720p.iFPD.part2.rar
http://k2s.cc/file/b5b8c4c0c9172/Avalanche.Sharks.2013.720p.iFPD.part3.rar
http://k2s.cc/file/aa43c1896f9d0/Avalanche.Sharks.2013.720p.iFPD.part4.rar
Kod:
http://ul.to/i0ocmula/ifpd-snowsharks.us-720p.mkv
http://k2s.cc/file/4bd3b67db4dab/ifpd-snowsharks.us-720p.mkv
http://terafile.co/1af7d9341f90/ifpd-snowsharks.us-720p.mkv
 
Top