Šta je novo?

Astro kid aka Terra Willy-Planète inconnue aka Вилијева планета (2019)

  • Začetnik teme simark
  • Datum pokretanja
S

simark

Učlanjen(a)
05.09.2009
Poruka
190
Вилијева планета Astro kid
на српском и енгл. језику
Terra Willy - Planète inconnue

Новији цртани на српском језику. У вишој резолуцији и са додатним енглеским звуком.




Complete name : Вилијева планета - Terra Willy-Planète inconnue - Astro.Kid.2019.720p.BluRay.x264.dual-simark.mkv

File size : 873 MiB
Duration : 1 h 30 min

Video
Codec ID : V_MPEG4/ISO/AVC
Bit rate : 1 100 kb/s
Width : 1 280 pixels
Height : 534 pixels
Display aspect ratio : 2.40:1
Frame rate : 24.000 FPS
Stream size : 709 MiB (81%)
Writing library : x264 core 157

Audio #1
Codec ID : A_AAC-2
Bit rate : 128 kb/s
Channel(s) : 2 channels
Sampling rate : 48.0 kHz
Stream size : 82.2 MiB (9%)
Language : Serbian

Audio #2
Codec ID : A_AAC-2
Bit rate : 125 kb/s
Channel(s) : 2 channels
Sampling rate : 48.0 kHz
Stream size : 80.8 MiB (9%)
Language : English



Hidden content
You need to react to this post in order to see this content.
Нема шифре...
 
Top