Šta je novo?

Arctic dogs aka Arctic justice aka Мисија Арктик (2019)

  • Začetnik teme simark
  • Datum pokretanja
S

simark

Učlanjen(a)
05.09.2009
Poruka
189
Мисија Арктик
на српском
Arctic dogs

Arctic justice

Још један новији цртани на српском језику. Поново више назива филма. У вишој резолуцији и са остављеним енглеским звуком.



Complete name : Мисија Арктик - Arctic Justice - Arctic Dogs.2019.720p.WEB-DL.AAC.830MB.Dual-simark.mkv

File size : 827 MiB
Duration : 1 h 32 min

Video
Codec ID : V_MPEG4/ISO/AVC
Bit rate : 1 041 kb/s
Width : 1 280 pixels
Height : 536 pixels
Display aspect ratio : 2.40:1
Frame rate : 23.976 (24000/1001) FPS
Stream size : 688 MiB (83%)

Audio #1
Codec ID : A_AAC-2
Bit rate : 128 kb/s
Channel(s) : 2 channels
Sampling rate : 48.0 kHz
Stream size : 84.3 MiB (10%)
Language : Serbian

Audio #2
Codec ID : A_AAC-2
Bit rate : 80.1 kb/s
Channel(s) : 2 channels
Sampling rate : 48.0 kHz
Stream size : 52.9 MiB (6%)
Language : English



Hidden content
You need to react to this post in order to see this content.
Нема шифре...
 
Poslednja izmena:
Top