Šta je novo?

Apsolutnih sto aka Absolute Hundred (2001)

  • Začetnik teme Wolf 13
  • Datum pokretanja
Wolf 13

Wolf 13

MODERATOR
Učlanjen(a)
10.10.2009
Poruka
13.248
Apsolutnih sto (2001) DVDrip AC3 5.1 x264 by Wolf
(MKV) HQ



Kod:
  https://www.imdb.com/title/tt0292432/
General
Unique ID : 41861658871425099571068846262982038232 (0x1F7E4321C8274C8E5CD8018F4E1452D8)
Complete name : Apsolutnih sto (2001) DVDrip AC3 5.1 x264 by Wolf.mkv
Format : Matroska
Format version : Version 4
File size : 1.16 GiB
Duration : 1 h 34 min
Overall bit rate : 1 757 kb/s
Encoded date : UTC 2018-12-30 14:52:33 / UTC 2018-12-30T10:18:06Z
Writing application : mkvmerge v29.0.0 ('Like It Or Not') 64-bit
Writing library : libebml v1.3.6 + libmatroska v1.4.9 / Lavf57.7.2

Video
ID : 1
Format : AVC
Format/Info : Advanced Video Codec
Format profile : [email protected]
Format settings : CABAC / 8 Ref Frames
Format settings, CABAC : Yes
Format settings, ReFrames : 8 frames
Codec ID : V_MPEG4/ISO/AVC
Duration : 1 h 34 min
Bit rate : 1 500 kb/s
Width : 718 pixels
Height : 572 pixels
Display aspect ratio : 16:9
Frame rate mode : Constant
Frame rate : 25.000 FPS
Color space : YUV
Chroma subsampling : 4:2:0
Bit depth : 8 bits
Scan type : Progressive
Bits/(Pixel*Frame) : 0.146
Stream size : 990 MiB (83%)
Title : Apsolutnih sto (2001)
Writing library : x264 core 155 r2901 7d0ff22
Encoding settings : cabac=1 / ref=8 / deblock=1:-1:-1 / analyse=0x3:0x133 / me=umh / subme=9 / psy=1 / psy_rd=1.00:0.15 / mixed_ref=1 / me_range=16 / chroma_me=1 / trellis=2 / 8x8dct=1 / cqm=0 / deadzone=21,11 / fast_pskip=1 / chroma_qp_offset=-3 / threads=6 / lookahead_threads=1 / sliced_threads=0 / nr=0 / decimate=1 / interlaced=0 / bluray_compat=0 / constrained_intra=0 / bframes=3 / b_pyramid=2 / b_adapt=2 / b_bias=0 / direct=3 / weightb=1 / open_gop=0 / weightp=2 / keyint=250 / keyint_min=25 / scenecut=40 / intra_refresh=0 / rc_lookahead=60 / rc=2pass / mbtree=1 / bitrate=1500 / ratetol=1.0 / qcomp=0.60 / qpmin=0 / qpmax=69 / qpstep=4 / cplxblur=20.0 / qblur=0.5 / vbv_maxrate=300000 / vbv_bufsize=300000 / nal_hrd=none / filler=0 / ip_ratio=1.40 / aq=1:1.00
Language : Serbian
Default : Yes
Forced : No
Color range : Limited
Color primaries : BT.601 PAL
Transfer characteristics : BT.709
Matrix coefficients : BT.601
Statistics Tags Issue : mkvmerge v29.0.0 ('Like It Or Not') 64-bit 2018-12-30 14:52:33 / mkvmerge v29.0.0 ('Like It Or Not') 64-bit 2018-12-30 14:52:33 / UTC 2018-12-30T10:18:06Z
FromStats_BitRate : 1499466
FromStats_Duration : 01:34:22.560000000
FromStats_FrameCount : 141564
FromStats_StreamSize : 1061352457

Audio
ID : 2
Format : E-AC-3
Format/Info : Enhanced AC-3
Commercial name : Dolby Digital Plus
Codec ID : A_EAC3
Duration : 1 h 34 min
Bit rate mode : Constant
Bit rate : 256 kb/s
Channel(s) : 6 channels
Channel layout : L R C LFE Ls Rs
Sampling rate : 48.0 kHz
Frame rate : 31.250 FPS (1536 SPF)
Compression mode : Lossy
Delay relative to video : -45 ms
Stream size : 173 MiB (15%)
Title : Apsolutnih sto (2001)
Language : Serbian
Service kind : Complete Main
Default : Yes
Forced : No
Statistics Tags Issue : mkvmerge v29.0.0 ('Like It Or Not') 64-bit 2018-12-30 14:52:33 / mkvmerge v29.0.0 ('Like It Or Not') 64-bit 2018-12-30 14:52:33 / UTC 2018-12-30T10:18:06Z
FromStats_BitRate : 256000
FromStats_Duration : 01:34:22.720000000
FromStats_FrameCount : 176960
FromStats_StreamSize : 181207040

Hidden content
You need to react to this post in order to see this content.

 
Poslednja izmena:
M

maja_jevtic

UREDNIK
Učlanjen(a)
27.06.2011
Poruka
9.953
Apsolutnih sto (2001)




















Apsolutnih sto je srpski film napravljen 2001. godine u režiji Srdana Golubovića. Glavne uloge tumače Vuk Kostić, Srđan Todorović, Bogdan Diklić, Paulina Manov, Boris Isaković, Dragan Petrović, Milorad Mandić, Saša Ali, Slavko Labović, Vladan Dujović i Andrej Srećković.

Glavni junak Saša Gordić (Vuk Kostić) je talentovani strelac koji je krenuo stopama starijeg brata Igora Gordića (Srđan Todorović), juniorskog prvaka Evrope u streljaštvu 1991. Međutim, Igor je dobrovoljno otišao u rat u bivšoj Jugoslaviji, iz kog se vratio kao zavisnik od droge. Kako bi imao novaca da vrati dug lokalnom dileru, Igor je prinuđen da rasprodaje imovinu koju su im ostavili roditelji, što se Saši nimalo ne sviđa. Zato on odlučuje da se osveti svima koji su uništili život njegovom bratu.

Reditelj: Srdan Golubovic

Uloge: Vuk Kostic, Srdjan 'Zika' Todorovic, Paulina Manov
























Hidden content
You need to react to this post in order to see this content.



 
Poslednja izmena od urednika:
Top