Šta je novo?
SerbianForum

Dobrodošli na SerbianForum.org, mjesto na kojem možete pronaći apsolutno sve, mjesto druženja i odlične zabave!

Aladdin (2019)

Torrent Maniak

Torrent Maniak

MODERATOR
Aladdin (2019)
















Režija: Guy Ritchie
Scenario: John August, Guy Ritchie
Uloge: Will Smith, Naomi Scott, Billy Magnussen, Mena Massoud, Nasim Pedrad, Marwan Kenzari, Navid Negahban, Numan Acar, Adam Collins, Kamil Lemieszewski, Nikkita Chadha, Joey Ansah, Jag Patel, Bern Collaço, Amer Chadha-Patel


Opis:
Uzbudljiva i dinamična adaptacija Disneyjevog animiranog klasika "Aladin" zanimljiva je priča o šarmantnom sitnom lopovu Aladinu, hrabroj i samozatajnoj princezi Jasmini te duhu iz svjetiljke koji je potencijalni ključ njihove budućnosti.
Talentovani redatelj Guy Ritchie donosi nam romantičnu i glazbenu avanturu smeštenu u fiktivni lučki grad Agrabah. U glavnim ulogama nalaze se duh koji se pojavljuje iz čarobne lampe (Will Smith), šarmantna bitanga Aladin (Mena Massoud) te Jasmina (Naomi Scott), skromna i odlučna prinzeza slobodnog duha. Njihovoj pustolovini pridružuju se i magični čarobnjak Jafar (Marwan Kenzari), Sultan (Navid Negahban) koji je zabrinut za dobrobit i budućnost svoje kćeri Jasmine, Jasminina najbolja prijateljica (Nasim Pedrad) Dalia, zgodni i arogantni udvarač Princ Anders (Billy Magnussen) i Haskim (Numan Acar) kao Jafarov prvi pomoćnik i kapetan straže.























Hidden content
You need to react to this post in order to see this content.

 
Poslednja izmena:
T

tonics

Aladdin (2019)


IMDB link

Video Codec: mpeg4
Video Bitrate: 6000k
Video Size: 1920x1080
Frame Rate: 23.98fps
Audio: mp3 / 128k / 44100
AUTORSKI TITL
Hidden content
You need to react to this post in order to see this content.
Video Codec: mpeg4
Video Bitrate: 3700k
Video Size: 1280x720
Frame Rate: 23.98fps
Audio: mp3 / 128k / 44100
AUTORSKI TITL
Hidden content
You need to react to this post in order to see this content.
 
Wolf 13

Wolf 13

MODERATOR
Aladdin (2019) 720p BRrip DD5.1 x264 by Wolf
(MKV)



Kod:
 https://www.imdb.com/title/tt6139732/
General
Unique ID : 75185136604649214227257737683074882222 (0x3890216EBCDCCCE3D0A1CE40B5551AAE)
Complete name : Aladdin (2019) 720p BRrip DD5.1 x264 by Wolf.mkv
Format : Matroska
Format version : Version 4
File size : 1.57 GiB
Duration : 2 h 7 min
Overall bit rate : 1 758 kb/s
Encoded date : UTC 2019-08-27 12:57:43
Writing application : mkvmerge v36.0.0 ('Is That Jazz?') 64-bit
Writing library : libebml v1.3.9 + libmatroska v1.5.2

Video
ID : 1
Format : AVC
Format/Info : Advanced Video Codec
Format profile : Main@L5.1
Format settings : CABAC / 8 Ref Frames
Format settings, CABAC : Yes
Format settings, Reference : 8 frames
Codec ID : V_MPEG4/ISO/AVC
Duration : 2 h 7 min
Bit rate : 1 500 kb/s
Width : 1 280 pixels
Height : 536 pixels
Display aspect ratio : 2.40:1
Frame rate mode : Constant
Frame rate : 23.976 (24000/1001) FPS
Color space : YUV
Chroma subsampling : 4:2:0
Bit depth : 8 bits
Scan type : Progressive
Bits/(Pixel*Frame) : 0.091
Stream size : 1.34 GiB (85%)
Title : Aladdin (2019)
Writing library : x264 core 157 r2935 545de2f
Encoding settings : cabac=1 / ref=8 / deblock=1:-1:-1 / analyse=0x1:0x131 / me=umh / subme=9 / psy=1 / psy_rd=1.00:0.15 / mixed_ref=1 / me_range=16 / chroma_me=1 / trellis=2 / 8x8dct=0 / cqm=0 / deadzone=21,11 / fast_pskip=1 / chroma_qp_offset=-3 / threads=6 / lookahead_threads=1 / sliced_threads=0 / nr=0 / decimate=1 / interlaced=0 / bluray_compat=0 / constrained_intra=0 / bframes=3 / b_pyramid=2 / b_adapt=2 / b_bias=0 / direct=3 / weightb=1 / open_gop=0 / weightp=2 / keyint=240 / keyint_min=24 / scenecut=40 / intra_refresh=0 / rc_lookahead=60 / rc=2pass / mbtree=1 / bitrate=1500 / ratetol=1.0 / qcomp=0.60 / qpmin=0 / qpmax=69 / qpstep=4 / cplxblur=20.0 / qblur=0.5 / vbv_maxrate=240000 / vbv_bufsize=240000 / nal_hrd=none / filler=0 / ip_ratio=1.40 / aq=1:1.00
Language : English
Default : Yes
Forced : No
Color range : Limited
Color primaries : BT.709
Transfer characteristics : BT.709
Matrix coefficients : BT.709

Audio
ID : 2
Format : E-AC-3
Format/Info : Enhanced AC-3
Commercial name : Dolby Digital Plus
Codec ID : A_EAC3
Duration : 2 h 7 min
Bit rate mode : Constant
Bit rate : 256 kb/s
Channel(s) : 6 channels
Channel layout : L R C LFE Ls Rs
Sampling rate : 48.0 kHz
Frame rate : 31.250 FPS (1536 SPF)
Compression mode : Lossy
Delay relative to video : -5 ms
Stream size : 234 MiB (15%)
Title : Aladdin (2019)
Language : English
Service kind : Complete Main
Default : Yes
Forced : No

Text
ID : 3
Format : UTF-8
Codec ID : S_TEXT/UTF8
Codec ID/Info : UTF-8 Plain Text
Duration : 2 h 0 min
Bit rate : 51 b/s
Count of elements : 1300
Stream size : 45.5 KiB (0%)
Title : ALADIN
Language : Serbian
Default : Yes
Forced : No

Hidden content
You need to react to this post in order to see this content.

Hidden content
You need to react to this post in order to see this content.

 
Top