Šta je novo?

A Pink Panther Christmas (1978)

Član
Učlanjen(a)
17.01.2010
Poruka
1.399
A Pink Panther Christmas (1978)

Pink.jpg


2Pink.jpg


Rating 6.6

Director: Bill Perez

Animation | Family | Xmas | AVI

The Pink Panther employs various strategies in an effort to get himself a big holiday dinner.

Kod:
http://www.imdb.com/title/tt0330768/
Interchangeable Links
AVI
http://www.megaupload.com/?d=ORD2AWQT
http://www.megaupload.com/?d=5I193749
http://www.megaupload.com/?d=95IT4K91
http://www.megaupload.com/?d=GA0XQWUW
http://www.megaupload.com/?d=0LBTFB10
http://www.megaupload.com/?d=OKV45ZX9
http://www.megaupload.com/?d=PQ416XGB

OR

http://rapidshare.com/files/428123185/PinkXmas_JBd.part1.rar
http://rapidshare.com/files/428123068/PinkXmas_JBd.part2.rar
http://rapidshare.com/files/428122850/PinkXmas_JBd.part3.rar
http://rapidshare.com/files/428122604/PinkXmas_JBd.part4.rar
http://rapidshare.com/files/428124720/PinkXmas_JBd.part5.rar
http://rapidshare.com/files/428122386/PinkXmas_JBd.part6.rar
http://rapidshare.com/files/428125716/PinkXmas_JBd.part7.rar
 
Poslednja izmena od urednika:
ADMINISTRATOR
Učlanjen(a)
11.10.2009
Poruka
62.511
Pink Panther - A Pink Christmas (1978)

Pink Panther - A Pink Christmas (1978)
DVDRip

20698736025288068833.jpg





Kod:
http://imdb.com/title/tt0330768/



General
Complete name: A.Pink.Christmas.1978.DVDRip.avi
Format : AVI
Format/Info: Audio Video Interleave
File size: 698 MiB
Duration : 1h 12mn
Overall bit rate : 1 342 Kbps

Video
ID : 0
Format : MPEG-4 Visual
Codec ID : XVID
Codec ID/Hint: XviD
Duration : 1h 12mn
Bit rate : 1 204 Kbps
Width: 608 pixels
Height : 432 pixels
Display aspect ratio : 1.407
Frame rate : 23.976 fps
Color space: YUV
Chroma subsampling : 4:2:0
Bit depth: 8 bits
Scan type: Progressive
Compression mode : Lossy
Bits/(Pixel*Frame) : 0.191
Stream size: 627 MiB (90%)

Audio
ID : 1
Format : MPEG Audio
Format version : Version 1
Format profile : Layer 3
Mode : Joint stereo
Mode extension : MS Stereo
Codec ID : 55
Codec ID/Hint: MP3
Duration : 1h 12mn
Bit rate mode: Constant
Bit rate : 128 Kbps
Channel(s) : 2 channels
Sampling rate: 48.0 KHz
Compression mode : Lossy
Stream size: 66.6 MiB (10%)
Alignment: Aligned on interleaves
Interleave, duration : 42 ms (1.00 video frame)
Interleave, preload duration : 504 ms


screenstu.png

apinkchristmas1978dvdri.jpg




Kod:
http://ul.to/z6skhlah/A.Pink.Christmas.1978.DVDRip.avi
or
http://www.wupload.com/file/2323351562/A.Pink.Christmas.1978.DVDRip.avi
or
http://www.filesonic.com/file/3701269864/A.Pink.Christmas.1978.DVDRip.avi
or
http://www.uploadstation.com/file/YpcH5Fs/A.Pink.Christmas.1978.DVDRip.avi
or
http://www.fileserve.com/file/e2cnbsD/A.Pink.Christmas.1978.DVDRip.avi
or
http://uploading.com/files/d21cmbcb/A.Pink.Christmas.1978.DVDRip.avi/
 
Top