Šta je novo?

A Late Quartet (2012)

  • Začetnik teme CyberWarez
  • Datum pokretanja
CyberWarez

CyberWarez

Član
Učlanjen(a)
09.05.2011
Poruka
7.549
A Late Quartet (2012) LIMITED 1080p BluRay x264-GECKOS
File Size: 7,65 GiB




General
Complete name : a.late.quartet.2012.limited.1080p.bluray.x264-geckos.mkv
Format : Matroska
Format version : Version 2
File size : 7.65 GiB
Duration : 1h 46mn
Overall bit rate : 10.3 Mbps
Writing application : mkvmerge v4.1.1 ('Bouncin' Back') built on Jul 3 2010 22:54:08
Writing library : libebml v1.0.0 + libmatroska v1.0

Video
ID : 1
Format : AVC
Format/Info : Advanced Video Codec
Format profile : [email protected]
Format settings, CABAC : Yes
Format settings, ReFrames : 5 frames
Codec ID : V_MPEG4/ISO/AVC
Duration : 1h 46mn
Bit rate : 8 804 Kbps
Width : 1 920 pixels
Height : 800 pixels
Display aspect ratio : 2.40:1
Frame rate mode : Constant
Frame rate : 23.976 fps
Color space : YUV
Chroma subsampling : 4:2:0
Bit depth : 8 bits
Scan type : Progressive
Bits/(Pixel*Frame) : 0.239
Stream size : 6.38 GiB (83%)
Writing library : x264 core 129 r2245 bc13772
Language : English
Default : Yes
Forced : No

Audio
ID : 2
Format : DTS
Format/Info : Digital Theater Systems
Mode : 16
Format settings, Endianness : Big
Codec ID : A_DTS
Duration : 1h 46mn
Bit rate mode : Constant
Bit rate : 1 509 Kbps
Channel(s) : 6 channels
Channel positions : Front: L C R, Side: L R, LFE
Sampling rate : 48.0 KHz
Bit depth : 24 bits
Compression mode : Lossy
Stream size : 1.12 GiB (15%)
Language : English
Default : Yes
Forced : No
Kod:
http://www.imdb.com/title/tt1226240/



DOWNLOAD:
Kod:
http://www.netload.in/dateivjbN2pXUQy/A.Late.Quartet.2012.1080p.part1.rar.htm
http://www.netload.in/dateiGzsKXAaNhr/A.Late.Quartet.2012.1080p.part2.rar.htm
http://www.netload.in/dateiNvq6nab0zv/A.Late.Quartet.2012.1080p.part3.rar.htm
http://www.netload.in/dateinIqzCw5bfa/A.Late.Quartet.2012.1080p.part4.rar.htm
http://www.netload.in/dateiecge8bcWUs/A.Late.Quartet.2012.1080p.part5.rar.htm
http://www.netload.in/datei0j3tGp4MFa/A.Late.Quartet.2012.1080p.part6.rar.htm
http://www.netload.in/dateiXjJvz4vR18/A.Late.Quartet.2012.1080p.part7.rar.htm
http://www.netload.in/dateidq6SHHsmke/A.Late.Quartet.2012.1080p.part8.rar.htm

http://rapidgator.net/file/73764557/A.Late.Quartet.2012.1080p.part1.rar.html
http://rapidgator.net/file/73764550/A.Late.Quartet.2012.1080p.part2.rar.html
http://rapidgator.net/file/73764553/A.Late.Quartet.2012.1080p.part3.rar.html
http://rapidgator.net/file/73764552/A.Late.Quartet.2012.1080p.part4.rar.html
http://rapidgator.net/file/73765004/A.Late.Quartet.2012.1080p.part5.rar.html
http://rapidgator.net/file/73764999/A.Late.Quartet.2012.1080p.part6.rar.html
http://rapidgator.net/file/73765000/A.Late.Quartet.2012.1080p.part7.rar.html
http://rapidgator.net/file/73764747/A.Late.Quartet.2012.1080p.part8.rar.html

http://uploaded.net/file/w20uhnt4/A.Late.Quartet.2012.1080p.part1.rar
http://uploaded.net/file/vo7l6mvl/A.Late.Quartet.2012.1080p.part2.rar
http://uploaded.net/file/x42kzfyr/A.Late.Quartet.2012.1080p.part3.rar
http://uploaded.net/file/t7jmvoyz/A.Late.Quartet.2012.1080p.part4.rar
http://uploaded.net/file/xh363rk3/A.Late.Quartet.2012.1080p.part5.rar
http://uploaded.net/file/jop52ns9/A.Late.Quartet.2012.1080p.part6.rar
http://uploaded.net/file/d0z5sc9f/A.Late.Quartet.2012.1080p.part7.rar
http://uploaded.net/file/o7by446a/A.Late.Quartet.2012.1080p.part8.rar

http://lumfile.com/r9qgimt3tb9m/A.Late.Quartet.2012.1080p.part1.rar.html
http://lumfile.com/folbph4mycdk/A.Late.Quartet.2012.1080p.part2.rar.html
http://lumfile.com/pg1je712405p/A.Late.Quartet.2012.1080p.part3.rar.html
http://lumfile.com/cf0qjm5w57tw/A.Late.Quartet.2012.1080p.part4.rar.html
http://lumfile.com/3lclnv7r5w3e/A.Late.Quartet.2012.1080p.part5.rar.html
http://lumfile.com/nbfazevm41am/A.Late.Quartet.2012.1080p.part6.rar.html
http://lumfile.com/plggsjbwo2dq/A.Late.Quartet.2012.1080p.part7.rar.html
http://lumfile.com/nyz3df986g9t/A.Late.Quartet.2012.1080p.part8.rar.html
 
Top