Šta je novo?

A Kiss and a Promise (2010)

  • Začetnik teme CyberWarez
  • Datum pokretanja
CyberWarez

CyberWarez

Član
Učlanjen(a)
09.05.2011
Poruka
7.549
A Kiss and a Promise (2010) 720p BluRay x264-DOCUMENT
File Size: 5,46 GiB







General
Complete name : A.Kiss.and.a.Promise.2010.720p.BluRay.x264-DOCUMENT.mkv
Format : Matroska
Format version : Version 2
File size : 5.46 GiB
Duration : 1h 30mn
Overall bit rate : 8 647 Kbps
Encoded date : UTC 2012-05-12 02:49:22
Writing application : mkvmerge v3.4.0 ('Rapunzel') built on May 15 2010 09:38:20
Writing library : libebml v0.8.0 + libmatroska v0.9.0


Video
ID : 1
Format : AVC
Format/Info : Advanced Video Codec
Format profile : [email protected]
Format settings, CABAC : Yes
Format settings, ReFrames : 5 frames
Codec ID : V_MPEG4/ISO/AVC
Duration : 1h 30mn
Bit rate : 7 142 Kbps
Width : 1 280 pixels
Height : 720 pixels
Display aspect ratio : 16:9
Frame rate : 23.976 fps
Color space : YUV
Chroma subsampling : 4:2:0
Bit depth : 8 bits
Scan type : Progressive
Bits/(Pixel*Frame) : 0.323
Stream size : 4.40 GiB (81%)
Writing library : x264 core 124 r2197 69a0443
Language : English
Default : No
Forced : No


Audio
ID : 2
Format : DTS
Format/Info : Digital Theater Systems
Codec ID : A_DTS
Duration : 1h 30mn
Bit rate mode : Constant
Bit rate : 1 510 Kbps
Channel(s) : 6 channels
Channel positions : Front: L C R, Side: L R, LFE
Sampling rate : 48.0 KHz
Bit depth : 24 bits
Compression mode : Lossy
Stream size : 977 MiB (17%)
Language : English
Default : Yes
Forced : No

Kod:
http://www.imdb.com/title/tt1610294/







DOWNLOAD:
Kod:
http://www.filefactory.com/file/40dxvxt0hbk5/n/A.Kiss.and.a.Promise.720p.cW.part1.rar
http://www.filefactory.com/file/64q9x3jfwksv/n/A.Kiss.and.a.Promise.720p.cW.part2.rar
http://www.filefactory.com/file/3df8rhx5f9h9/n/A.Kiss.and.a.Promise.720p.cW.part3.rar
http://www.filefactory.com/file/2d8nxxfqknl9/n/A.Kiss.and.a.Promise.720p.cW.part4.rar
http://www.filefactory.com/file/6gtqiietzt97/n/A.Kiss.and.a.Promise.720p.cW.part5.rar
http://www.filefactory.com/file/ic1uppjdbwz/n/A.Kiss.and.a.Promise.720p.cW.part6.rar


http://turbobit.net/2vvlgsph6hnb/A.Kiss.and.a.Promise.720p.cW.part1.rar.html
http://turbobit.net/9up6e30rpkxj/A.Kiss.and.a.Promise.720p.cW.part2.rar.html
http://turbobit.net/ecwtk9iihurb/A.Kiss.and.a.Promise.720p.cW.part3.rar.html
http://turbobit.net/0aex8m7c2j8a/A.Kiss.and.a.Promise.720p.cW.part4.rar.html
http://turbobit.net/iaavr5u4rmyu/A.Kiss.and.a.Promise.720p.cW.part5.rar.html
http://turbobit.net/rvhuc1tba4ud/A.Kiss.and.a.Promise.720p.cW.part6.rar.html


http://www.netload.in/dateiSCUC7wsS2M/A.Kiss.and.a.Promise.720p.cW.part1.rar.htm
http://www.netload.in/dateiKxGSnSAtSY/A.Kiss.and.a.Promise.720p.cW.part2.rar.htm
http://www.netload.in/dateiJii7vO315H/A.Kiss.and.a.Promise.720p.cW.part3.rar.htm
http://www.netload.in/dateic0zzUEcWyG/A.Kiss.and.a.Promise.720p.cW.part4.rar.htm
http://www.netload.in/datei9liNW4m269/A.Kiss.and.a.Promise.720p.cW.part5.rar.htm
http://www.netload.in/datei0VYm2fKvBA/A.Kiss.and.a.Promise.720p.cW.part6.rar.htm
 
Top