Šta je novo?

A Haunting in Salem (2011)

  • Začetnik teme darle87
  • Datum pokretanja
darle87

darle87

Proud to be Serbian
Član
Učlanjen(a)
06.07.2010
Poruka
4.435

A.Haunting.In.Salem.2011.m720p.Bluray.x264.Jewelraz







A Haunting in Salem (Video 2011) - IMDb


Release Name: A.Haunting.In.Salem.2011.m720p.Bluray.x264.Jewelraz
Filesize: 2.13 GB
Runtime: 1hr 25min 49sec
Bitrate: 3554 kbps
Audio Codec: AC3, 48khz, 5:1
Resolution: 1280*720
FPS: 23.98
Language: English
Subtitle: None
Source: 720p Bluray


Encoded date : UTC 2011-10-26 15:37:36
Writing application : mkvmerge v5.0.0 ('Die Wahre Liebe') built on Sep 25 2011 20:33:49
Writing library : libebml v1.2.2 + libmatroska v1.3.0

Video
ID : 1
Format : AVC
Format/Info : Advanced Video Codec
Format profile : [email protected]
Format settings, CABAC : Yes
Format settings, ReFrames : 9 frames
Muxing mode : Header stripping
Codec ID : V_MPEG4/ISO/AVC
Duration : 1h 25mn
Bit rate : 3 168 Kbps
Width : 1 280 pixels
Height : 720 pixels
Display aspect ratio : 16:9
Frame rate : 23.976 fps
Color space : YUV
Chroma subsampling : 4:2:0
Bit depth : 8 bits
Scan type : Progressive
Bits/(Pixel*Frame) : 0.143
Stream size : 1.86 GiB (87%)
Writing library : x264 core 116 r2074 2641b9e

Audio
ID : 2
Format : AC-3
Format/Info : Audio Coding 3
Mode extension : CM (complete main)
Muxing mode : Header stripping
Codec ID : A_AC3
Duration : 1h 25mn
Bit rate mode : Constant
Bit rate : 384 Kbps
Channel(s) : 6 channels
Channel positions : Front: L C R, Side: L R, LFE
Sampling rate : 48.0 KHz
Bit depth : 16 bits
Compression mode : Lossy
Stream size : 236 MiB (11%)
Title : [email protected]

The new town sheriff moves into a large creepy old house with his family.
It seems that in the town of Salem there’s a special house for the sheriff
to live in gratis. Unfortunately it’s haunted by witches that have a strong
craving for sheriff’s blood.




Kod:
http://www.wupload.com/file/1255625521
http://www.wupload.com/file/1255660266
http://www.wupload.com/file/1257053081
http://www.wupload.com/file/1257512721
http://www.wupload.com/file/1258272991
 
Poslednja izmena od urednika:
darle87

darle87

Proud to be Serbian
Član
Učlanjen(a)
06.07.2010
Poruka
4.435


Kod:
[url=http://www.imdb.com/title/tt1912981/]A Haunting in Salem (Video 2011) - IMDb[/url]

RELEASE DATE……..: 2011.12.04
GENRE …………..: Horror
VIDEO BITRATE…….: 5780 kbps
VIDEO RESOLUTION….: 1280×720
AUDIO FORMAT……..: DTS English
VIDEO LENGTH……..: 86 minutes
SIZE ……………: DVD5

The new town sheriff moves into a large creepy old house with his family.
It seems that in the town of Salem there’s a special house for the sheriff
to live in gratis. Unfortunately it’s haunted by witches that have a strong
craving for sheriff’s blood.


Kod:
http://www.megaupload.com/?d=NSI89NKC
http://www.megaupload.com/?d=FVU8DQ42
http://www.megaupload.com/?d=UR9CF5EJ
http://www.megaupload.com/?d=9NCY8EX8
http://www.megaupload.com/?d=CB3D7QTO
http://www.megaupload.com/?d=EZAMTUKB
http://www.megaupload.com/?d=PM35KK22
http://www.megaupload.com/?d=WS7RRHYT
http://www.megaupload.com/?d=NNF8MZ6P
 
Torrent Maniak

Torrent Maniak

MODERATOR
Učlanjen(a)
02.05.2009
Poruka
29.301
[h=3]A Haunting in Salem 2011 720p BluRay x264-EXTREME[/h]






Kod:
[URL="http://www.netload.in/dateiNl9sem9Toe/A.Haunting.In.Salem.2011.720p.BluRay.x264.AC3-EXTREME.part1.rar.htm"]
[/URL][url=http://www.netload.in/dateiNl9sem9Toe/A.Haunting.In.Salem.2011.720p.BluRay.x264.AC3-EXTREME.part1.rar.htm]Netload Serious Filehosting - Netload[/url]
[url=http://www.netload.in/dateiNBOTUDuAyO/A.Haunting.In.Salem.2011.720p.BluRay.x264.AC3-EXTREME.part2.rar.htm]Netload Serious Filehosting - Netload[/url]
[url=http://www.netload.in/dateiWVoY49x8gk/A.Haunting.In.Salem.2011.720p.BluRay.x264.AC3-EXTREME.part3.rar.htm]Netload Serious Filehosting - Netload[/url]




A Haunting in Salem (Video 2011) - IMDb





Genre: Horror
IMDB rating: 3.1/10
Directed by: Shane Van Dyke
Starring: Bill Oberst Jr., Courtney Abbiati and Jenna Stone

Release Name: A.Haunting.in.Salem.2011.720p.BluRay.x264-EXTREME
Size: 4.37 GiB
Video: H264 | 1280x720 | 6 649 Kbps
Audio: English | AC-3 | 640 Kbps
Runtime: 1h 25mn
 
Top