Šta je novo?

A Good Old Fashioned Orgy (2011)

  • Začetnik teme darle87
  • Datum pokretanja
darle87

darle87

Proud to be Serbian
Član
Učlanjen(a)
06.07.2010
Poruka
4.435
A Good Old Fashioned Orgy 2011 720p BluRay x264-Uniongang




Kod:
[url=http://www.imdb.com/title/tt1231586/]A Good Old Fashioned Orgy (2011) - IMDb[/url]

:info:


Video
Format : AVC
Format profile : [email protected]
Format settings, CABAC : Yes
Format settings, ReFrames : 12 frames
Duration : 1h 34mn
Bit rate : 6 765 Kbps
Width : 1 280 pixels
Height : 688 pixels
Display aspect ratio : 1.860
Frame rate : 24.000 fps

Audio
Format : AC-3
Bit rate : 640 Kbps
Channel(s) : 6 channels
Channel positions : Front: L C R, Side: L R, LFE
Sampling rate : 48.0 KHz
Bit depth : 16 bits
Title : [email protected] kb/s
Language : English


:download:


Kod:
http://linksafe.me/d/3b841d2f2c
http://linksafe.me/d/43975b66a0
http://linksafe.me/d/40cd5a9b13
http://linksafe.me/d/f5362b65bf
 
boki71

boki71

ADMINISTRATOR
Učlanjen(a)
10.05.1971
Poruka
52.814


Kod:
http://www.imdb.com/title/tt1231586/


[TITLE].........................[ A Good Old Fashioned Orgy
[DIRECTOR]......................[ Alex Gregory, Peter Huyck
[RELEASE DATE]..................[ 6 October 2011 (Australia)
[FORMAT]:.......................[ Matroska (MKV)
[GENRE]:........................[ 2 September 2011 (USA)
[NO OF CDs].....................[ 1
[FILE SIZE]:....................[ 650MB
[RESOLUTION]:...................[ 1280x688
[LANGUAGE]:.....................[ English
[SUBTITLES]:....................[ English [Softcoded] - muxed (Fixed)
[ORIGINAL RUNTIME]:.............[ 01:34:40
[RELEASE RUNTIME]:..............[ 01:34:40



Kod:
http://freakshare.com/files/qc6q7psn/AgO.rar
 
CyberWarez

CyberWarez

Član
Učlanjen(a)
09.05.2011
Poruka
7.549
A Good Old Fashioned Orgy (2011) 720p BluRay X264-AMIABLE





Kod:
http://imdb.com/title/tt1231586/



General
Complete name : A.Good.Old.Fashioned.Orgy.2011.LIMITED.720p.BluRay.X264-AMIABLE.mkv
Format : Matroska
Format version : Version 2
File size : 4.37 GiB
Duration : 1h 35mn
Overall bit rate : 6 559 Kbps
Writing application : x264.exe
Writing library : mkv2rls v1.4 (date: 2011 mar 29)


Video
ID : 1
Format : AVC
Format/Info : Advanced Video Codec
Format profile : [email protected]
Format settings, CABAC : Yes
Format settings, ReFrames : 5 frames
Codec ID : V_MPEG4/ISO/AVC
Duration : 1h 35mn
Bit rate : 5 051 Kbps
Width : 1 280 pixels
Height : 696 pixels
Display aspect ratio : 1.85:1
Frame rate : 23.976 fps
Color space : YUV
Chroma subsampling : 4:2:0
Bit depth : 8 bits
Scan type : Progressive
Bits/(Pixel*Frame) : 0.236
Stream size : 3.28 GiB (75%)
Writing library : x264 core 125 r2200 999b753
Language : English
Default : Yes
Forced : No


Audio
ID : 2
Format : DTS
Format/Info : Digital Theater Systems
Codec ID : A_DTS
Duration : 1h 35mn
Bit rate mode : Constant
Bit rate : 1 510 Kbps
Channel(s) : 6 channels
Channel positions : Front: L C R, Side: L R, LFE
Sampling rate : 48.0 KHz
Bit depth : 24 bits
Compression mode : Lossy
Stream size : 1.01 GiB (23%)
Language : English
Default : Yes
Forced : No






Kod:
http://www.filefactory.com/file/1964g8pxpykf/n/A.Good.Old.Fashioned.Orgy.2011.720p.AMIABLE.cw.part1.rar
http://www.filefactory.com/file/2harjy16pqkt/n/A.Good.Old.Fashioned.Orgy.2011.720p.AMIABLE.cw.part2.rar
http://www.filefactory.com/file/i5eb747p6jz/n/A.Good.Old.Fashioned.Orgy.2011.720p.AMIABLE.cw.part3.rar
http://www.filefactory.com/file/68ep634hic9j/n/A.Good.Old.Fashioned.Orgy.2011.720p.AMIABLE.cw.part4.rar
http://www.filefactory.com/file/21in028cyeyd/n/A.Good.Old.Fashioned.Orgy.2011.720p.AMIABLE.cw.part5.rar


http://www.netload.in/dateiOSTwQ30EHp/A.Good.Old.Fashioned.Orgy.2011.720p.AMIABLE.cw.part1.rar.htm
http://www.netload.in/dateit8OpEQ0ZWj/A.Good.Old.Fashioned.Orgy.2011.720p.AMIABLE.cw.part2.rar.htm
http://www.netload.in/dateiDkRBx8Q0ux/A.Good.Old.Fashioned.Orgy.2011.720p.AMIABLE.cw.part3.rar.htm
http://www.netload.in/dateilwXtijqh2D/A.Good.Old.Fashioned.Orgy.2011.720p.AMIABLE.cw.part4.rar.htm
http://www.netload.in/datei3gOqWiEtdk/A.Good.Old.Fashioned.Orgy.2011.720p.AMIABLE.cw.part5.rar.htm


http://rapidgator.net/file/16074265/A.Good.Old.Fashioned.Orgy.2011.720p.AMIABLE.cw.part1.rar.html
http://rapidgator.net/file/16074225/A.Good.Old.Fashioned.Orgy.2011.720p.AMIABLE.cw.part2.rar.html
http://rapidgator.net/file/16075168/A.Good.Old.Fashioned.Orgy.2011.720p.AMIABLE.cw.part3.rar.html
http://rapidgator.net/file/16075805/A.Good.Old.Fashioned.Orgy.2011.720p.AMIABLE.cw.part4.rar.html
http://rapidgator.net/file/16077674/A.Good.Old.Fashioned.Orgy.2011.720p.AMIABLE.cw.part5.rar.html
 
Top