Šta je novo?

A Good Man (2014)

  • Začetnik teme CyberWarez
  • Datum pokretanja
CyberWarez

CyberWarez

Član
Učlanjen(a)
09.05.2011
Poruka
7.549
************************************************************
A Good Man (2014) 1080p BluRay x264 NOSCREENS
File Size: 7.65 GiB

************************************************************



INFO:
Kod:
General
Complete name                            : G:\A.Good.Man.2014.1080p.BluRay.x264-NOSCREENS\noscr-agoodman-1080p.mkv
Format                                   : Matroska
Format version                           : Version 4 / Version 2
File size                                : 7.65 GiB
Duration                                 : 1h 43mn
Overall bit rate                         : 10.6 Mbps
Encoded date                             : UTC 2014-09-11 11:04:11
Writing application                      : mkvmerge v7.1.0 ('Good Love') 64bit built on Jul 27 2014 13:06:55
Writing library                          : libebml v1.3.0 + libmatroska v1.4.1
DURATION                                 : 01:35:44.112000000
NUMBER_OF_FRAMES                         : 26

Video
ID                                       : 1
Format                                   : AVC
Format/Info                              : Advanced Video Codec
Format profile                           : [email protected]
Format settings, CABAC                   : Yes
Format settings, ReFrames                : 4 frames
Codec ID                                 : V_MPEG4/ISO/AVC
Duration                                 : 1h 43mn
Bit rate                                 : 9 102 Kbps
Width                                    : 1 920 pixels
Height                                   : 1 080 pixels
Display aspect ratio                     : 16:9
Frame rate mode                          : Constant
Frame rate                               : 23.976 fps
Color space                              : YUV
Chroma subsampling                       : 4:2:0
Bit depth                                : 8 bits
Scan type                                : Progressive
Bits/(Pixel*Frame)                       : 0.183
Stream size                              : 6.41 GiB (84%)
Writing library                          : x264 core 142 r2479 dd79a61
Default                                  : Yes
Forced                                   : No
DURATION                                 : 01:43:10.977000000

Audio
ID                                       : 2
Format                                   : DTS
Format/Info                              : Digital Theater Systems
Mode                                     : 16
Format settings, Endianness              : Big
Codec ID                                 : A_DTS
Duration                                 : 1h 43mn
Bit rate mode                            : Constant
Bit rate                                 : 1 509 Kbps
Channel(s)                               : 6 channels
Channel positions                        : Front: L C R, Side: L R, LFE
Sampling rate                            : 48.0 KHz
Bit depth                                : 24 bits
Compression mode                         : Lossy
Stream size                              : 1.09 GiB (14%)
Language                                 : English
Default                                  : Yes
Forced                                   : No
iMDB:
Kod:
http://www.imdb.com/title/tt3480556/


Single Extraction | No Password | Interchangeable Links: | Working 100% |

Kod:
http://rapidgator.net/file/1f47484fc2232e42c0bd1eec6d7bb042/G00D.MaN.1080.NOSCREENS.part1.rar.html
http://rapidgator.net/file/3ad12d644a4832fd694d15ba7098d21e/G00D.MaN.1080.NOSCREENS.part2.rar.html
http://rapidgator.net/file/3199b92e7d515ab15ef133af15eff4d4/G00D.MaN.1080.NOSCREENS.part3.rar.html
http://rapidgator.net/file/6f3b49d9bef7ae3d25b56fcab8795d3c/G00D.MaN.1080.NOSCREENS.part4.rar.html
http://rapidgator.net/file/06d9089af36810287701be7ef6b51be4/G00D.MaN.1080.NOSCREENS.part5.rar.html
http://rapidgator.net/file/47d794990c3d034f2cc4b0af4fac6e1d/G00D.MaN.1080.NOSCREENS.part6.rar.html

http://uploaded.net/file/dr35pikn/G00D.MaN.1080.NOSCREENS.part1.rar
http://uploaded.net/file/4elrfv1z/G00D.MaN.1080.NOSCREENS.part2.rar
http://uploaded.net/file/b5p9eois/G00D.MaN.1080.NOSCREENS.part3.rar
http://uploaded.net/file/jsh9rd62/G00D.MaN.1080.NOSCREENS.part4.rar
http://uploaded.net/file/d4hbopd5/G00D.MaN.1080.NOSCREENS.part5.rar
http://uploaded.net/file/zzota489/G00D.MaN.1080.NOSCREENS.part6.rar

https://www.oboom.com/YI572HUZ/G00D.MaN.1080.NOSCREENS.part1.rar
https://www.oboom.com/AFQRC2X5/G00D.MaN.1080.NOSCREENS.part2.rar
https://www.oboom.com/Q757AV2O/G00D.MaN.1080.NOSCREENS.part3.rar
https://www.oboom.com/JP9FE3EG/G00D.MaN.1080.NOSCREENS.part4.rar
https://www.oboom.com/NOS6V38B/G00D.MaN.1080.NOSCREENS.part5.rar
https://www.oboom.com/W07RQO1E/G00D.MaN.1080.NOSCREENS.part6.rar

http://xerver.co/crm4zpwmldsi/G00D.MaN.1080.NOSCREENS.part1.rar
http://xerver.co/9d8fhw05krrl/G00D.MaN.1080.NOSCREENS.part2.rar
http://xerver.co/s2x1k9cm3mi8/G00D.MaN.1080.NOSCREENS.part3.rar
http://xerver.co/szpb0tuto3ef/G00D.MaN.1080.NOSCREENS.part4.rar
http://xerver.co/xvmq8bmus366/G00D.MaN.1080.NOSCREENS.part5.rar
http://xerver.co/aeadz31mficv/G00D.MaN.1080.NOSCREENS.part6.rar


KEEP IN TOUCH FOR LATEST UPLOAD..
Your support encourage me...
 
Top