Šta je novo?
Član
Učlanjen(a)
09.05.2011
Poruka
7.549
************************************************************
A Fighting Man (2014) 720p BluRay x264 DTS RBG
File Size: 4,.37 GiB

************************************************************

fighthd.jpg


INFO:
Kod:
General
Complete name                            : A.Fighting.Man.2014.720p.BluRay.x264.DTS-RBG.mkv
Format                                   : Matroska
Format version                           : Version 4 / Version 2
File size                                : 4.37 GiB
Duration                                 : 1h 28mn
Overall bit rate mode                    : Variable
Overall bit rate                         : 7 091 Kbps
Movie name                               : A.Fighting.Man.2014.720p.BluRay.x264.DTS-RARBG
Encoded date                             : UTC 2014-06-25 10:42:54
Writing application                      : mkvmerge v7.0.0 ('Where We Going') 64bit built on Jun  9 2014 15:16:27
Writing library                          : libebml v1.3.0 + libmatroska v1.4.1

Video
ID                                       : 1
Format                                   : AVC
Format/Info                              : Advanced Video Codec
Format profile                           : High@L4.1
Format settings, CABAC                   : Yes
Format settings, ReFrames                : 11 frames
Codec ID                                 : V_MPEG4/ISO/AVC
Duration                                 : 1h 28mn
Bit rate mode                            : Variable
Bit rate                                 : 5 580 Kbps
Maximum bit rate                         : 25.0 Mbps
Width                                    : 1 280 pixels
Height                                   : 534 pixels
Display aspect ratio                     : 2.40:1
Frame rate mode                          : Constant
Frame rate                               : 23.976 fps
Color space                              : YUV
Chroma subsampling                       : 4:2:0
Bit depth                                : 8 bits
Scan type                                : Progressive
Bits/(Pixel*Frame)                       : 0.340
Stream size                              : 3.35 GiB (77%)
Title                                    : A.Fighting.Man.2014.720p.BluRay.x264.DTS-RARBG
Writing library                          : x264 core 112 r1867 22bfd31
Default                                  : Yes
Forced                                   : No

Audio
ID                                       : 2
Format                                   : DTS
Format/Info                              : Digital Theater Systems
Mode                                     : 16
Format settings, Endianness              : Big
Codec ID                                 : A_DTS
Duration                                 : 1h 28mn
Bit rate mode                            : Constant
Bit rate                                 : 1 510 Kbps
Channel(s)                               : 6 channels
Channel positions                        : Front: L C R, Side: L R, LFE
Sampling rate                            : 48.0 KHz
Bit depth                                : 24 bits
Compression mode                         : Lossy
Delay relative to video                  : 11ms
Stream size                              : 953 MiB (21%)
Title                                    : A.Fighting.Man.2014.720p.BluRay.x264.DTS-RARBG
Language                                 : English
Default                                  : Yes
Forced                                   : No

iMDB:
Kod:
http://www.imdb.com/title/tt2854894/

fighthd.png


Single Extraction | No Password | Interchangeable Links: | Working 100% |

Kod:
http://uploaded.net/file/5yt2diun/A.Fighting.Man.2014.720p.BluRay.part1.rar
http://uploaded.net/file/sjau6tbf/A.Fighting.Man.2014.720p.BluRay.part2.rar
http://uploaded.net/file/02m6sx10/A.Fighting.Man.2014.720p.BluRay.part3.rar
http://uploaded.net/file/qahcpmdw/A.Fighting.Man.2014.720p.BluRay.part4.rar
http://uploaded.net/file/gjyk6v9r/A.Fighting.Man.2014.720p.BluRay.part5.rar

http://rapidgator.net/file/4d81ee1dc53e2d5179eacd6fdde48d01/A.Fighting.Man.2014.720p.BluRay.part1.rar.html
http://rapidgator.net/file/010835b004c6f1a0f1c6c9f5b652b852/A.Fighting.Man.2014.720p.BluRay.part2.rar.html
http://rapidgator.net/file/6b4af9e895d0f577ccd5f1668a0fef4b/A.Fighting.Man.2014.720p.BluRay.part3.rar.html
http://rapidgator.net/file/efe919596f5a1a639108de83ed4c760e/A.Fighting.Man.2014.720p.BluRay.part4.rar.html
http://rapidgator.net/file/c5a28bdb587fc5c4f7e17b7d8b4106b3/A.Fighting.Man.2014.720p.BluRay.part5.rar.html

http://k2s.cc/file/debc37b38000c/A.Fighting.Man.2014.720p.BluRay.part1.rar
http://k2s.cc/file/06a4f4205285f/A.Fighting.Man.2014.720p.BluRay.part2.rar
http://k2s.cc/file/6a499cdfa3944/A.Fighting.Man.2014.720p.BluRay.part3.rar
http://k2s.cc/file/2666ef81acc38/A.Fighting.Man.2014.720p.BluRay.part4.rar
http://k2s.cc/file/dd601897c0345/A.Fighting.Man.2014.720p.BluRay.part5.rar

https://www.oboom.com/FCMWZ2BN/A.Fighting.Man.2014.720p.BluRay.part1.rar
https://www.oboom.com/AMHCGDTU/A.Fighting.Man.2014.720p.BluRay.part2.rar
https://www.oboom.com/GAMBO7CY/A.Fighting.Man.2014.720p.BluRay.part3.rar
https://www.oboom.com/7C5ANDZ8/A.Fighting.Man.2014.720p.BluRay.part4.rar
https://www.oboom.com/RU0QFIVE/A.Fighting.Man.2014.720p.BluRay.part5.rar
 
Top