Šta je novo?

A Disney Christmas Gift (1982)

ADMINISTRATOR
Učlanjen(a)
11.10.2009
Poruka
62.459
A Disney Christmas Gift (1982) DVDRip XviD

6cab0797.jpg





Kod:
http://imdb.com/title/tt0483445/



General
Complete name: A.Disney.Christmas.Gift.1982.DVDRip.avi
Format : AVI
Format/Info: Audio Video Interleave
File size: 699 MiB
Duration : 48mn 14s
Overall bit rate mode: Variable
Overall bit rate : 2 027 Kbps

Video
ID : 0
Format : MPEG-4 Visual
Codec ID : XVID
Codec ID/Hint: XviD
Duration : 48mn 14s
Bit rate : 1 907 Kbps
Width: 512 pixels
Height : 384 pixels
Display aspect ratio : 4:3
Frame rate : 29.970 fps
Color space: YUV
Chroma subsampling : 4:2:0
Bit depth: 8 bits
Scan type: Progressive
Compression mode : Lossy
Bits/(Pixel*Frame) : 0.324
Stream size: 658 MiB (94%)

Audio
ID : 1
Format : MPEG Audio
Format version : Version 1
Format profile : Layer 3
Mode : Joint stereo
Mode extension : MS Stereo
Codec ID : 55
Codec ID/Hint: MP3
Duration : 48mn 14s
Bit rate mode: Variable
Bit rate : 106 Kbps
Nominal bit rate : 128 Kbps
Channel(s) : 2 channels
Sampling rate: 48.0 KHz
Compression mode : Lossy
Stream size: 36.4 MiB (5%)
Alignment: Aligned on interleaves
Interleave, duration : 24 ms (0.72 video frame)
Interleave, preload duration : 512 ms
Writing library: LAME3.97
Language : English



adisneychristmasgift198.jpg




Kod:
http://www.fileserve.com/file/VErX5jw/A.Disney.Christmas.Gift.1982.DVDRip.avi
or
http://www.filesonic.com/file/3321783604/A.Disney.Christmas.Gift.1982.DVDRip.avi
or
http://ul.to/okfk2muu/A.Disney.Christmas.Gift.1982.DVDRip.avi
or
http://uploading.com/files/3ac9m9m3/A.Disney.Christmas.Gift.1982.DVDRip.avi/
or
http://www.uploadstation.com/file/6JnmyBM/A.Disney.Christmas.Gift.1982.DVDRip.avi
Single Links | No Extraction | No Pass | Enjoy
 
Top