Šta je novo?
SerbianForum

Dobrodošli na SerbianForum.org, mjesto na kojem možete pronaći apsolutno sve, mjesto druženja i odlične zabave!

A Certain Justice (2014)

  • Začetnik teme CyberWarez
  • Datum pokretanja
CyberWarez

CyberWarez

Član
************************************************************
A Certain Justice (2014) 720p BluRay x264 PFa
File Size: 4,35 GiB

************************************************************



INFO:
Kod:
Video
ID                                       : 1
Format                                   : AVC
Format/Info                              : Advanced Video Codec
Format profile                           : High@L4.1
Format settings, CABAC                   : Yes
Format settings, ReFrames                : 5 frames
Codec ID                                 : V_MPEG4/ISO/AVC
Duration                                 : 1h 36mn
Bit rate                                 : 4 929 Kbps
Width                                    : 1 280 pixels
Height                                   : 720 pixels
Display aspect ratio                     : 16:9
Frame rate mode                          : Constant
Frame rate                               : 23.976 fps
Color space                              : YUV
Chroma subsampling                       : 4:2:0
Bit depth                                : 8 bits
Scan type                                : Progressive
Bits/(Pixel*Frame)                       : 0.223
Stream size                              : 3.25 GiB (75%)
Writing library                          : x264 core 142 r2431 ac76440
Language                                 : English
Default                                  : Yes
Forced                                   : No

Audio
ID                                       : 2
Format                                   : DTS
Format/Info                              : Digital Theater Systems
Mode                                     : 16
Format settings, Endianness              : Big
Codec ID                                 : A_DTS
Duration                                 : 1h 36mn
Bit rate mode                            : Constant
Bit rate                                 : 1 509 Kbps
Channel(s)                               : 6 channels
Channel positions                        : Front: L C R, Side: L R, LFE
Sampling rate                            : 48.0 KHz
Bit depth                                : 24 bits
Compression mode                         : Lossy
Stream size                              : 1.02 GiB (23%)
Default                                  : Yes
Forced                                   : No
iMDB:
Kod:
http://imdb.com/title/tt2909476/






Single Extraction | No Password | Interchangeable Links: | Working 100% |

Kod:
http://rapidgator.net/file/0f87d6806557e3a1b76fff0fa8816a2a/ACJ14720p.PFa.part1.rar.html
http://rapidgator.net/file/bb57403c8e5c887accdb72e4e30be391/ACJ14720p.PFa.part2.rar.html
http://rapidgator.net/file/ff2e1f95df824a6162940e24b6fb8d17/ACJ14720p.PFa.part3.rar.html

http://uploaded.net/file/7f19njyn/ACJ14720p.PFa.part1.rar
http://uploaded.net/file/m01bfqo2/ACJ14720p.PFa.part2.rar
http://uploaded.net/file/oxtxffoy/ACJ14720p.PFa.part3.rar

http://k2s.cc/file/e7fcd230ee8dc/ACJ14720p.PFa.part1.rar
http://k2s.cc/file/e783176c159da/ACJ14720p.PFa.part2.rar
http://k2s.cc/file/01a13fb2d674e/ACJ14720p.PFa.part3.rar
 
Top