Šta je novo?

A Case of You (2013)

  • Začetnik teme shtriumph
  • Datum pokretanja
S

shtriumph

Učlanjen(a)
28.09.2013
Poruka
122
=
A Case of You (2013) WEBRip x264 AAC-MaxQ
File Size: 1.37 GiB

=



General
Complete name : A Case of You 2013 WEBRip x264 AAC-MaxQ.mp4
Format : MPEG-4
Format profile : Base Media
Codec ID : isom
File size : 1.37 GiB
Duration : 1h 31mn
Overall bit rate mode : Variable
Overall bit rate : 2 138 Kbps

Video
ID : 1
Format : AVC
Format/Info : Advanced Video Codec
Format profile : [email protected]
Format settings, CABAC : Yes
Format settings, ReFrames : 4 frames
Codec ID : avc1
Codec ID/Info : Advanced Video Coding
Duration : 1h 31mn
Bit rate : 1 912 Kbps
Maximum bit rate : 5 432 Kbps
Width : 720 pixels
Height : 304 pixels
Display aspect ratio : 2.35:1
Frame rate mode : Constant
Frame rate : 23.976 fps
Color space : YUV
Chroma subsampling : 4:2:0
Bit depth : 8 bits
Scan type : Progressive
Bits/(Pixel*Frame) : 0.364
Stream size : 1.22 GiB (89%)
Writing library : x264 core 140 r2377 1ca7bb9

Audio
ID : 2
Format : AAC
Format/Info : Advanced Audio Codec
Format profile : LC
Codec ID : 40
Duration : 1h 31mn
Bit rate mode : Variable
Bit rate : 222 Kbps
Maximum bit rate : 241 Kbps
Channel count : 6 channels
Channel positions : Front: L C R, Side: L R, LFE
Sampling rate : 48.0 KHz
Compression mode : Lossy
Stream size : 145 MiB (10%)

PLOT: A young writer tries to impress a girl he meets online with an embellished profile, but he finds himself in a real mess when she falls for him and he has to keep up the act.
Kod:
http://www.imdb.com/title/tt1817081/


DOWNLOAD:

Kod:
http://uploaded.net/file/07v49clb/CasE0fY0u.WEBRip.x264.part1.rar
http://uploaded.net/file/z52u78f9/CasE0fY0u.WEBRip.x264.part2.rar
http://uploaded.net/file/g6lmienq/CasE0fY0u.WEBRip.x264.part3.rar

http://rapidgator.net/file/ad24f581d74f1f8accf327466d895661/CasE0fY0u.WEBRip.x264.part1.rar.html
http://rapidgator.net/file/4de808886f053a7bddb72e1de5737415/CasE0fY0u.WEBRip.x264.part2.rar.html
http://rapidgator.net/file/9bb0112735ec515ace9c2e1d210df304/CasE0fY0u.WEBRip.x264.part3.rar.html

http://ryushare.com/s0t5ze26hnv6/CasE0fY0u.WEBRip.x264.part1.rar
http://ryushare.com/c3c3nf4p5s8d/CasE0fY0u.WEBRip.x264.part2.rar
http://ryushare.com/gxgk8rls5m0z/CasE0fY0u.WEBRip.x264.part3.rar

http://lumfile.com/l91u37uuz5lk/CasE0fY0u.WEBRip.x264.part1.rar.html
http://lumfile.com/4ekf93xilzlq/CasE0fY0u.WEBRip.x264.part2.rar.html
http://lumfile.com/6wdv3whih0rw/CasE0fY0u.WEBRip.x264.part3.rar.html
 
Poslednja izmena od urednika:
Top