Šta je novo?
Član
Učlanjen(a)
23.12.2014
Poruka
3.612
UxLoJ.jpg


iNFO URL:
Kod:
http://www.imdb.com/title/tt2614684/
STORYLiNE:
A young British soldier is accidentally abandoned by his unit following a terrifying riot on the streets of Belfast in 1971. Unable to tell friend from foe, the raw recruit must survive the night alone and find his way to safety through a disorienting, alien and deadly landscape.
ViDEO iNFO:
Size: 4690307320 bytes (4.37 GiB), duration: 01:39:24, avg.bitrate: 6291 kb/s
Audio: dts, 48000 Hz, 5 channels (eng)
Video: h264, yuv420p, 1280x536, 23.98 fps(r) (eng)
Subtitles: eng eng

a1e99e700958da85c372f78580f75eea.jpg


RAPIDGATOR
Kod:
http://rapidgator.net/file/34b30d77524d6cf06bf6f7f6acaa7a8b/71.2014.LIMITED.720p.BluRay.X264-AMIABLE.part1.rar.html
http://rapidgator.net/file/ea98aa9ef44711d491274efa6e585f56/71.2014.LIMITED.720p.BluRay.X264-AMIABLE.part2.rar.html
http://rapidgator.net/file/44e7ae3d81f6e152996e714d703fa118/71.2014.LIMITED.720p.BluRay.X264-AMIABLE.part3.rar.html
http://rapidgator.net/file/9b9a1579aa0b4e654a1a8d1193f3e527/71.2014.LIMITED.720p.BluRay.X264-AMIABLE.part4.rar.html
http://rapidgator.net/file/ad024d8f5c5d5f32d0d98bf0072e5a30/71.2014.LIMITED.720p.BluRay.X264-AMIABLE.part5.rar.html

UPLOADED.NET
Kod:
http://uploaded.net/file/pflj5yk7/71.2014.LIMITED.720p.BluRay.X264-AMIABLE.part1.rar
http://uploaded.net/file/donp6r6l/71.2014.LIMITED.720p.BluRay.X264-AMIABLE.part2.rar
http://uploaded.net/file/wws1q8y6/71.2014.LIMITED.720p.BluRay.X264-AMIABLE.part3.rar
http://uploaded.net/file/pb211jjx/71.2014.LIMITED.720p.BluRay.X264-AMIABLE.part4.rar
http://uploaded.net/file/pei0olt7/71.2014.LIMITED.720p.BluRay.X264-AMIABLE.part5.rar

UPLOADABLE
Kod:
http://www.uploadable.ch/file/BJf5BHwPwMFv/71.2014.LIMITED.720p.BluRay.X264-AMIABLE.part1.rar
http://www.uploadable.ch/file/xPZWrfcFKZb7/71.2014.LIMITED.720p.BluRay.X264-AMIABLE.part2.rar
http://www.uploadable.ch/file/sJUaQ636a2BD/71.2014.LIMITED.720p.BluRay.X264-AMIABLE.part3.rar
http://www.uploadable.ch/file/J477h7jvbybT/71.2014.LIMITED.720p.BluRay.X264-AMIABLE.part4.rar
http://www.uploadable.ch/file/Eb27sUnrmyrQ/71.2014.LIMITED.720p.BluRay.X264-AMIABLE.part5.rar

ROCKFILE
Kod:
http://rockfile.eu/sekc9p7nmwif.html
http://rockfile.eu/j1l2z75kyym4.html
http://rockfile.eu/cf3ovrssmi6y.html
http://rockfile.eu/8541x01ycjv1.html
http://rockfile.eu/4216w7aw2jnj.html

i46K9KIHkGb1W.png
 
Član
Učlanjen(a)
09.05.2011
Poruka
7.549

71 (2014) LIMITED 1080p BluRay x264 AMIABLE
File Size: 7.688 GiB


71.jpg


INFO:
Kod:
General
Complete name                  : K:\BuckUp\71.1080p.AMiABLE.mkv
Format                         : Matroska
Format version                 : Version 2
File size                      : 7.64 GiB
Duration                       : 1h 39mn
Overall bit rate               : 11.0 Mbps
Writing application            : mkvmerge v6.6.0 ('The Edge Of The In Between') built on Dec 1 2013 17:55:00
Writing library                : libebml v1.3.0 + libmatroska v1.4.1

Video
ID                             : 1
Format                         : AVC
Format/Info                    : Advanced Video Codec
Format profile                 : [email protected]
Format settings, CABAC         : Yes
Format settings, ReFrames      : 5 frames
Codec ID                       : V_MPEG4/ISO/AVC
Duration                       : 1h 39mn
Bit rate                       : 9 509 Kbps
Width                          : 1 920 pixels
Height                         : 808 pixels
Display aspect ratio           : 2.40:1
Frame rate mode                : Constant
Frame rate                     : 23.976 fps
Color space                    : YUV
Chroma subsampling             : 4:2:0
Bit depth                      : 8 bits
Scan type                      : Progressive
Bits/(Pixel*Frame)             : 0.256
Stream size                    : 6.44 GiB (84%)
Writing library                : x264 core 144 r2525 40bb568
Language                       : English
Default                        : Yes
Forced                         : No

Audio
ID                             : 2
Format                         : DTS
Format/Info                    : Digital Theater Systems
Mode                           : 16
Format settings, Endianness    : Big
Codec ID                       : A_DTS
Duration                       : 1h 39mn
Bit rate mode                  : Constant
Bit rate                       : 1 509 Kbps
Channel(s)                     : 6 channels
Channel positions              : Front: L C R, Side: L R, LFE
Sampling rate                  : 48.0 KHz
Bit depth                      : 24 bits
Compression mode               : Lossy
Stream size                    : 1.05 GiB (14%)
Language                       : English
Default                        : Yes
Forced                         : No

iMDB:
Kod:
http://www.imdb.com/title/tt2614684/

71hd.jpg


Single Extraction | No Password | Interchangeable Links: | Working 100% |

Kod:
http://uploaded.net/file/03bbstka/71.1080p.AMiABLE.part1.rar
http://uploaded.net/file/h8w0d0wi/71.1080p.AMiABLE.part2.rar
http://uploaded.net/file/qzn9vma2/71.1080p.AMiABLE.part3.rar
http://uploaded.net/file/ch2zqhn3/71.1080p.AMiABLE.part4.rar
http://uploaded.net/file/sj8l4b3k/71.1080p.AMiABLE.part5.rar
http://uploaded.net/file/0ocf8q0i/71.1080p.AMiABLE.part6.rar
http://uploaded.net/file/ytwweffq/71.1080p.AMiABLE.part7.rar
http://uploaded.net/file/emz1ncfu/71.1080p.AMiABLE.part8.rar

http://rapidgator.net/file/904fb09eb093a7ff8f5a0b653ac19e0f/71.1080p.AMiABLE.part1.rar.html
http://rapidgator.net/file/97798546bd26a74a2c10fc10b74896d0/71.1080p.AMiABLE.part2.rar.html
http://rapidgator.net/file/c135f4d2c07c72cd21a5d0f28f0307d1/71.1080p.AMiABLE.part3.rar.html
http://rapidgator.net/file/b10a3b0d2df8b83fb5a0593331c6a9d5/71.1080p.AMiABLE.part4.rar.html
http://rapidgator.net/file/abe39c8077ab4fa930acf7e268a0c384/71.1080p.AMiABLE.part5.rar.html
http://rapidgator.net/file/4cf8cd8016130787a3c287fbcfe5c2cb/71.1080p.AMiABLE.part6.rar.html
http://rapidgator.net/file/1933f63417a86e1927a1cbbcce1d3764/71.1080p.AMiABLE.part7.rar.html
http://rapidgator.net/file/38b8da928f4ee59826fe6e6f052f3105/71.1080p.AMiABLE.part8.rar.html

http://k2s.cc/file/d6eb6056eb188/71.1080p.AMiABLE.part1.rar
http://k2s.cc/file/b103e97bf31cf/71.1080p.AMiABLE.part2.rar
http://k2s.cc/file/c5b73ff106b61/71.1080p.AMiABLE.part3.rar
http://k2s.cc/file/8037f83cc8668/71.1080p.AMiABLE.part4.rar
http://k2s.cc/file/520bde58fba6f/71.1080p.AMiABLE.part5.rar
http://k2s.cc/file/089077a3817ed/71.1080p.AMiABLE.part6.rar
http://k2s.cc/file/a2358d0caf13e/71.1080p.AMiABLE.part7.rar
http://k2s.cc/file/31ed54f996407/71.1080p.AMiABLE.part8.rar

http://www.nitroflare.com/view/934AB80D6C60D32
http://www.nitroflare.com/view/49D1BC55DB9987A
http://www.nitroflare.com/view/8F5AD6F8107A191
http://www.nitroflare.com/view/DA44B7C5F455565
http://www.nitroflare.com/view/72E3BD810D75866
http://www.nitroflare.com/view/7C6C7CAFB93CBCC
http://www.nitroflare.com/view/8377073E5678146
http://www.nitroflare.com/view/95875031CD555FC
 
Član
Učlanjen(a)
02.03.2013
Poruka
3.108
71 2014 BRRip XviD AC3-EVO

G6_XHMN.jpg


File: 2154232521252BR251242.avi
Size: 1449615365 bytes (1.35 GiB), duration: 01:25:41, avg.bitrate: 2256 kb/s
Audio: ac3, 48000 Hz, stereo, 448 kb/s
Video: mpeg4, yuv420p, 720x400, 25.00 fps(r)

2154232521252_BR251242_s.jpg


If U Like My Post Willing To Buy Premium For High Speed Resumable downloads Pls BuY Premium From This Links

Kod:
http://rapidgator.net/file/5ebe0a9bb4fc16388b4559fccc158983/2154232521252BR251242.avi.html

http://keep2s.cc/file/576bd0741f4bc/2154232521252BR251242.avi

http://www.nitroflare.com/view/16087016C622B8E/2154232521252BR251242.avi


 
Top