Šta je novo?
SerbianForum

Dobrodošli na SerbianForum.org, mjesto na kojem možete pronaći apsolutno sve, mjesto druženja i odlične zabave!

12 Rounds (2009)

  • Začetnik teme CyberWarez
  • Datum pokretanja
CyberWarez

CyberWarez

Član
==
12 Rounds (2009) UNRATED 720p BluRay x264-iNFAMOUS
File Size: 4.37 GiB
==





General
Complete name : 12.Rounds.UNRATED.720p.BluRay.x264-iNFAMOUS\inf-12ro.mkv
Format : Matroska
Format version : Version 2
File size : 4.37 GiB
Duration : 1h 49mn
Overall bit rate : 5 712 Kbps
Encoded date : UTC 2009-07-18 04:01:51
Writing application : mkvmerge v2.9.0 ('Moanin'') built on May 22 2009 17:46:31
Writing library : libebml v0.7.7 + libmatroska v0.8.1

Video
ID : 1
Format : AVC
Format/Info : Advanced Video Codec
Format profile : High@L4.1
Format settings, CABAC : Yes
Format settings, ReFrames : 5 frames
Codec ID : V_MPEG4/ISO/AVC
Duration : 1h 49mn
Bit rate : 4 201 Kbps
Width : 1 280 pixels
Height : 544 pixels
Display aspect ratio : 2.35:1
Frame rate mode : Constant
Frame rate : 23.976 fps
Color space : YUV
Chroma subsampling : 4:2:0
Bit depth : 8 bits
Scan type : Progressive
Bits/(Pixel*Frame) : 0.252
Stream size : 3.13 GiB (72%)
Writing library : x264 core 67 r1173 f6d3166
Language : English
Default : Yes
Forced : No

Audio
ID : 2
Format : DTS
Format/Info : Digital Theater Systems
Mode : 16
Format settings, Endianness : Big
Codec ID : A_DTS
Duration : 1h 49mn
Bit rate mode : Constant
Bit rate : 1 509 Kbps
Channel(s) : 6 channels
Channel positions : Front: L C R, Side: L R, LFE
Sampling rate : 48.0 KHz
Bit depth : 24 bits
Compression mode : Lossy
Stream size : 1.16 GiB (26%)
Language : English
Default : Yes
Forced : No
Kod:
http://www.imdb.com/title/tt1160368/







DOWNLOAD:
Kod:
http://rapidgator.net/file/bb18e367b71f60a4933b3e39455d30e9/12.Rounds.UNRATED.720p.iNFAMOUS.part1.rar.html
http://rapidgator.net/file/e986a7b79f8d0d068883245ec4bd0490/12.Rounds.UNRATED.720p.iNFAMOUS.part2.rar.html
http://rapidgator.net/file/921c63713ed8cc0576aea436ef589a4d/12.Rounds.UNRATED.720p.iNFAMOUS.part3.rar.html
http://rapidgator.net/file/64a6686221fbd4ffc9c6e993ea86eb02/12.Rounds.UNRATED.720p.iNFAMOUS.part4.rar.html
http://rapidgator.net/file/0a231e9513647940f2f311d8265c9e32/12.Rounds.UNRATED.720p.iNFAMOUS.part5.rar.html

http://www.filefactory.com/file/6paz4sid7he9/n/12.Rounds.UNRATED.720p.iNFAMOUS.part1.rar
http://www.filefactory.com/file/2o2fnkkfq8qf/n/12.Rounds.UNRATED.720p.iNFAMOUS.part2.rar
http://www.filefactory.com/file/2r4irzp7rotv/n/12.Rounds.UNRATED.720p.iNFAMOUS.part3.rar
http://www.filefactory.com/file/ys9anpastzf/n/12.Rounds.UNRATED.720p.iNFAMOUS.part4.rar
http://www.filefactory.com/file/4sgtsy8zanzl/n/12.Rounds.UNRATED.720p.iNFAMOUS.part5.rar
DOWNLOAD SINGL LINKS:
Kod:
http://uploaded.net/file/na8x07aa/inf-12ro.mkv
http://rapidgator.net/file/78d3652d097812a5be10757d599028ff/inf-12ro.mkv.html
 
Poslednja izmena od urednika:
Top