Šta je novo?
SerbianForum

Dobrodošli na SerbianForum.org, mjesto na kojem možete pronaći apsolutno sve, mjesto druženja i odlične zabave!

12 Dogs Of Christmas Great Puppy Rescue (2012)

  • Začetnik teme CyberWarez
  • Datum pokretanja
CyberWarez

CyberWarez

Član
12 Dogs Of Christmas Great Puppy Rescue (2012) 720p BluRay x264-MELiTE
File Size: 4.37 GiB




Kod:
[B]General
Complete name                            : m-12dogs-720p.mkv
Format                                   : Matroska
Format version                           : Version 2
File size                                : 4.37 GiB
Duration                                 : 1h 41mn
Overall bit rate                         : 6 149 Kbps
Encoded date                             : UTC 2012-11-07 07:28:47
Writing application                      : mkvmerge v5.5.0 ('Healer') built on Apr  6 2012 21:43:24
Writing library                          : libebml v1.2.3 + libmatroska v1.3.0

Video
ID                                       : 1
Format                                   : AVC
Format/Info                              : Advanced Video Codec
Format profile                           : High@L4.1
Format settings, CABAC                   : Yes
Format settings, ReFrames                : 5 frames
Muxing mode                              : Header stripping
Codec ID                                 : V_MPEG4/ISO/AVC
Duration                                 : 1h 41mn
Bit rate                                 : 4 643 Kbps
Width                                    : 1 280 pixels
Height                                   : 720 pixels
Display aspect ratio                     : 16:9
Frame rate mode                          : Constant
Frame rate                               : 23.976 fps
Color space                              : YUV
Chroma subsampling                       : 4:2:0
Bit depth                                : 8 bits
Scan type                                : Progressive
Bits/(Pixel*Frame)                       : 0.210
Stream size                              : 3.21 GiB (73%)
Writing library                          : x264 core 125 r2200 999b753
Language                                 : English
Default                                  : Yes
Forced                                   : No

Audio
ID                                       : 2
Format                                   : DTS
Format/Info                              : Digital Theater Systems
Muxing mode                              : Header stripping
Codec ID                                 : A_DTS
Duration                                 : 1h 41mn
Bit rate mode                            : Constant
Bit rate                                 : 1 510 Kbps
Channel(s)                               : 6 channels
Channel positions                        : Front: L C R, Side: L R, LFE
Sampling rate                            : 48.0 KHz
Bit depth                                : 24 bits
Compression mode                         : Lossy
Stream size                              : 1.07 GiB (25%)
Default                                  : Yes
Forced                                   : No[/B]
Kod:
http://www.imdb.com/title/tt2325491/









DOWNLOAD:
Kod:
http://www.netload.in/dateiWphGXiyaEm/Gr3at.Puppy.R3scu3.2012.720p.BluRay.MELiTE.part1.rar.htm
http://www.netload.in/dateiSJttfnIYyx/Gr3at.Puppy.R3scu3.2012.720p.BluRay.MELiTE.part2.rar.htm
http://www.netload.in/dateidBJjH9uzGx/Gr3at.Puppy.R3scu3.2012.720p.BluRay.MELiTE.part3.rar.htm
http://www.netload.in/dateiQAKSTmX3lg/Gr3at.Puppy.R3scu3.2012.720p.BluRay.MELiTE.part4.rar.htm
http://www.netload.in/datei3lzgrW85xB/Gr3at.Puppy.R3scu3.2012.720p.BluRay.MELiTE.part5.rar.htm
 
Poslednja izmena od urednika:
Top