Šta je novo?

1000 Times More Brutal (2012)

VIP
Učlanjen(a)
30.10.2010
Poruka
1.107
1000 Times More Brutal (2012) DVDRip Xvid AC3-UnKnOwN




8FMls.jpg







Kod:
http://www.imdb.com/title/tt1744760/




Source: DVD
Size: 1.1 GB
Genre: Crime
Video: XviD | 680×384 | 1768 kbps
Audio: English | AC3 | 448 kbps


Directed By: Kamal Ahmed
Starring: Natalie Allen, Anthony Aveni and Rosario Aveni


Four friends pay the ultimate price,when they seek revenge against a low-level Gangster.


Screen


http://rapidimg.org/images/ySWTC.jpg[/img






[B]Download - Kombinovani linkovi[/B]

[code]http://extabit.com/file/29hbymzjsq9i6
http://extabit.com/file/29hbymzjsq9hp[/code]
 
Poslednja izmena od urednika:
Član
Učlanjen(a)
07.06.2010
Poruka
469
1000 Times More Brutal (2012) DVDRip Xvid AC3-UnKnOwN

ddud5zlkvqhwdd5a6d8.png


Kod:
http://www.imdb.com/title/tt1744760/

Video
ID : 0
Format : MPEG-4 Visual
Format profile : Advanced [email protected]
Format settings, BVOP : 2
Format settings, QPel : No
Format settings, GMC : No warppoints
Format settings, Matrix : Default (H.263)
Muxing mode : Packed bitstream
Codec ID : XVID
Codec ID/Hint : XviD
Duration : 1h 31mn
Bit rate : 1 375 Kbps
Width : 680 pixels
Height : 386 pixels
Display aspect ratio : 16:9
Frame rate : 29.970 fps
Color space : YUV
Chroma subsampling : 4:2:0
Bit depth : 8 bits
Scan type : Progressive
Compression mode : Lossy
Bits/(Pixel*Frame) : 0.175
Stream size : 895 MiB (75%)
Writing library : XviD 64

Audio
ID : 1
Format : AC-3
Format/Info : Audio Coding 3
Mode extension : CM (complete main)
Codec ID : 2000
Duration : 1h 31mn
Bit rate mode : Constant
Bit rate : 448 Kbps
Channel(s) : 6 channels
Channel positions : Front: L C R, Side: L R, LFE
Sampling rate : 48.0 KHz
Bit depth : 16 bits
Compression mode : Lossy
Stream size : 292 MiB (24%)
Alignment : Aligned on interleaves
Interleave, duration : 33 ms (1.00 video frame)
Interleave, preload duration : 512 ms

uzy6td0or62o7wgmd46.jpg


Kod:
https://rapidshare.com/files/2522459408/1000tmb.dvd__amicica.part1.rar
https://rapidshare.com/files/2268993107/1000tmb.dvd__amicica.part2.rar
 
Poslednja izmena od urednika:
Top