Šta je novo?

10 Terrorists (2012)

Član
Učlanjen(a)
09.05.2011
Poruka
7.549
===============================
10 Terrorists (2012) HDRip x264 AC3 FooKaS
File Size: 1.39 GiB

===============================

terror.jpg


Title: 10Terrorists
Year: 2012
Genre: Comedy
Rating: 6.2 (31 votes)
Runtime: N/A
Director: Dee McLachlan
Cast: Kendal Rae, Jasper Bagg, Aljin Abella, Richard Cawthorne
Plot:
Kod:
Questioning the world we live in. An outrageous Los Angeles producer sets out to make the most extreme and controversial Reality Television show ever, but gets more than he bargained for.


General
Complete name : 10.Terrorists.2012.HDRip.x264.AC3-FooKaS.mkv
Format : Matroska
Format version : Version 2
File size : 1.39 GiB
Duration : 1h 33mn
Overall bit rate : 2 143 Kbps
Encoded date : UTC 2014-01-28 12:47:15
Writing application : mkvmerge v6.5.0 ('Isn't she lovely') built on Oct 20 2013 12:50:05
Writing library : libebml v1.3.0 + libmatroska v1.4.1

Video
ID : 1
Format : AVC
Format/Info : Advanced Video Codec
Format profile : [email protected]
Format settings, CABAC : Yes
Format settings, ReFrames : 8 frames
Codec ID : V_MPEG4/ISO/AVC
Duration : 1h 33mn
Bit rate : 1 757 Kbps
Width : 720 pixels
Height : 408 pixels
Display aspect ratio : 16:9
Frame rate mode : Constant
Frame rate : 23.976 fps
Color space : YUV
Chroma subsampling : 4:2:0
Bit depth : 8 bits
Scan type : Progressive
Bits/(Pixel*Frame) : 0.249
Stream size : 1.12 GiB (80%)
Writing library : x264 core 138 r2358 9e941d1
Language : English
Default : Yes
Forced : No
Color primaries : Generic film

Audio
ID : 2
Format : AC-3
Format/Info : Audio Coding 3
Mode extension : CM (complete main)
Format settings, Endianness : Big
Codec ID : A_AC3
Duration : 1h 33mn
Bit rate mode : Constant
Bit rate : 384 Kbps
Channel count : 6 channels
Channel positions : Front: L C R, Side: L R, LFE
Sampling rate : 48.0 KHz
Bit depth : 16 bits
Compression mode : Lossy
Stream size : 256 MiB (18%)
Language : English
Default : Yes
Forced : No

Imdb Url:
Kod:
[url]http://www.imdb.com/title/tt1561759/[/url]
Movie Trailer:
Kod:
[media=youtube]RZx_7kiFPY8[/media]


12terr.png


dd.png


ddd.png



SINGLE EXTRACTION | NO PASSWORD | INTERCHANGEABLE LINK:

Kod:
[url]http://uploaded.net/file/44ev2kev/10.Terrorists.2012.HDRip.FooKaS.part1.rar[/url]
[url]http://uploaded.net/file/gwa5yk0k/10.Terrorists.2012.HDRip.FooKaS.part2.rar[/url]
[url]http://uploaded.net/file/egfgdl4w/10.Terrorists.2012.HDRip.FooKaS.part3.rar[/url]
[url]http://uploaded.net/file/kc1u6l3v/10.Terrorists.2012.HDRip.FooKaS.part4.rar[/url]

[url]http://rapidgator.net/file/6105a99b292fd97d6b1e00ec8f384bc6/10.Terrorists.2012.HDRip.FooKaS.part1.rar.html[/url]
[url]http://rapidgator.net/file/64ea9616f45b2e679999b03230e725c2/10.Terrorists.2012.HDRip.FooKaS.part2.rar.html[/url]
[url]http://rapidgator.net/file/4d6c889ef22f46af00cb5b1bf3298f25/10.Terrorists.2012.HDRip.FooKaS.part3.rar.html[/url]
[url]http://rapidgator.net/file/4d0faab81890551be78702e4bc9da9e6/10.Terrorists.2012.HDRip.FooKaS.part4.rar.html[/url]

[url]http://k2s.cc/file/52e80bfae257d/10.Terrorists.2012.HDRip.FooKaS.part1.rar[/url]
[url]http://k2s.cc/file/52e80bfae07b8/10.Terrorists.2012.HDRip.FooKaS.part2.rar[/url]
[url]http://k2s.cc/file/52e80bf486981/10.Terrorists.2012.HDRip.FooKaS.part3.rar[/url]
[url]http://k2s.cc/file/52e80be129a55/10.Terrorists.2012.HDRip.FooKaS.part4.rar[/url]


I HAVE BACKUP, DONT WORRY ABOUT DEAD LINKS, PLEASE SEND ME PM, AND I WILL REUP ANY LINK


tnx.jpg
 
Top