Šta je novo?

10,000 Days (2014)

  • Začetnik teme CyberWarez
  • Datum pokretanja
CyberWarez

CyberWarez

Član
Učlanjen(a)
09.05.2011
Poruka
7.549
************************************************************
10,000 Days (2014) UNRATED HDRip x264 AC3 TiTAN
File Size: 1.14 GiB

************************************************************



INFO:
Kod:
General
Complete name                            : M:\100.00.mkv
Format                                   : Matroska
Format version                           : Version 2
File size                                : 1.14 GiB
Duration                                 : 1h 31mn
Overall bit rate mode                    : Variable
Overall bit rate                         : 1 789 Kbps
Encoded date                             : UTC 2014-10-18 23:04:04
Writing application                      : mkvmerge v7.2.0 ('On Every Street') 32bit built on Sep 13 2014 15:42:11
Writing library                          : libebml v1.3.0 + libmatroska v1.4.1
DURATION                                 : 01:31:04.512000000

Video
ID                                       : 1
Format                                   : AVC
Format/Info                              : Advanced Video Codec
Format profile                           : [email protected]
Format settings, CABAC                   : Yes
Format settings, ReFrames                : 3 frames
Codec ID                                 : V_MPEG4/ISO/AVC
Duration                                 : 1h 31mn
Bit rate mode                            : Variable
Bit rate                                 : 1 369 Kbps
Maximum bit rate                         : 40.0 Mbps
Width                                    : 720 pixels
Height                                   : 400 pixels
Display aspect ratio                     : 16:9
Frame rate mode                          : Constant
Frame rate                               : 23.976 fps
Color space                              : YUV
Chroma subsampling                       : 4:2:0
Bit depth                                : 8 bits
Scan type                                : Progressive
Bits/(Pixel*Frame)                       : 0.198
Stream size                              : 892 MiB (77%)
Writing library                          : x264 core 142 r2479 dd79a61
Default                                  : Yes
Forced                                   : No

Audio
ID                                       : 2
Format                                   : AC-3
Format/Info                              : Audio Coding 3
Mode extension                           : CM (complete main)
Format settings, Endianness              : Big
Codec ID                                 : A_AC3
Duration                                 : 1h 31mn
Bit rate mode                            : Constant
Bit rate                                 : 384 Kbps
Channel(s)                               : 6 channels
Channel positions                        : Front: L C R, Side: L R, LFE
Sampling rate                            : 48.0 KHz
Bit depth                                : 16 bits
Compression mode                         : Lossy
Stream size                              : 250 MiB (21%)
Language                                 : English
Default                                  : Yes
Forced                                   : No
iMDB:
Kod:
http://www.imdb.com/title/tt3530690/


Single Extraction | No Password | Interchangeable Links: | Working 100% |

Kod:
http://rapidgator.net/file/65b863e18052f9f7bbc18affdc42c4dc/100.00.Days.rar.html
http://uploaded.net/file/du3objzi/100.00.Days.rar
http://k2s.cc/file/081f93015bee6/100.00.Days.rar
http://xerver.co/00fpzumzsdeo/100.00.Days.rar
 
drsko66

drsko66

UPLOADER
Učlanjen(a)
23.01.2014
Poruka
3.424
10,000 Days 2014 UNRATED HDRIP x264 AC3-TiTAN



:info:

Kod:
http://www.imdb.com/title/tt3530690/
Release Date: Oct 18th, 2014
Filename: 10,000.Days.2014.UNRATED.HDRIP.x264.AC3-TiTANSource: HDSize: 1.2 GBGenre: Horror | Thriller
Video: MKV | 720×400Audio: English | AC3Subs: N/A
IMDB Rating: Voting begins after releaseRT Critics: N/A
Directed By: Eric SmallStarring: John Schneider, Riley Smith, Kim Myers

:screen:




:download:

Kod:
Letitbit
——————————————————–
http://letitbit.net/download/85446.8d9741bca55806c5d502f8992da7/10_000.Days.2014.UNRATED.HDRIP.x264.AC3-TiTAN.mkv.html
▬▬▬▬▬▬▬▬▬▬▬▬▬▬▬▬▬▬▬▬▬▬▬▬▬▬▬▬▬▬▬▬▬▬▬▬▬▬▬▬▬▬▬▬▬▬▬▬▬▬▬▬▬▬▬▬
Uploaded
——————————————————–
http://uploaded.net/file/y626x0pg/10%2C000.Days.2014.UNRATED.HDRIP.x264.AC3-TiTAN.mkv
▬▬▬▬▬▬▬▬▬▬▬▬▬▬▬▬▬▬▬▬▬▬▬▬▬▬▬▬▬▬▬▬▬▬▬▬▬▬▬▬▬▬▬▬▬▬▬▬▬▬▬▬▬▬▬▬
Oboom
——————————————————–
https://www.oboom.com/YPYBHV1N/10%2C000.Days.2014.UNRATED.HDRIP.x264.AC3-TiTAN.mkv
▬▬▬▬▬▬▬▬▬▬▬▬▬▬▬▬▬▬▬▬▬▬▬▬▬▬▬▬▬▬▬▬▬▬▬▬▬▬▬▬▬▬▬▬▬▬▬▬▬▬▬▬▬▬▬▬
Fileparadox
——————————————————–
http://fileparadox.in/alw1ws8oluex/10_2C000.Days.2014.UNRATED.HDRIP.x264.AC3-TiTAN.mkv
▬▬▬▬▬▬▬▬▬▬▬▬▬▬▬▬▬▬▬▬▬▬▬▬▬▬▬▬▬▬▬▬▬▬▬▬▬▬▬▬▬▬▬▬▬▬▬▬▬▬▬▬▬▬▬▬
Radicalshare
——————————————————–
http://radicalshare.com/kf4tm5jo2l21/10.000.Days.2014.UNRATED.HDRIP.x264.AC3-TiTAN.mkv.html
▬▬▬▬▬▬▬▬▬▬▬▬▬▬▬▬▬▬▬▬▬▬▬▬▬▬▬▬▬▬▬▬▬▬▬▬▬▬▬▬▬▬▬▬▬▬▬▬▬▬▬▬▬▬▬▬
Uploadrocket
——————————————————–
http://uploadrocket.net/ah51znzn4p2n/10.000.Days.2014.UNRATED.HDRIP.x264.AC3-TiTAN.mkv.html
▬▬▬▬▬▬▬▬▬▬▬▬▬▬▬▬▬▬▬▬▬▬▬▬▬▬▬▬▬▬▬▬▬▬▬▬▬▬▬▬▬▬▬▬▬▬▬▬▬▬▬▬▬▬▬▬
 
Top