Signup Now
Da bi mogli da pišete na forumu, otvarate nove teme, kao i da vidite download
linkove morate prvo da se registrujete.

Ukoliko Vam nije jasan proces registracije, molimo vas da kliknete OVDE
Ako ste zaboravili lozinku, kliknite OVDE :)

The Victorias Secret Fashion Show 2016

Diskusija u 'Torrent Razno' započeta od Angelus, 06.12.2016.

  1. Angelus

    Angelus Administrator Administrator

    Postova:
    39.388
    Zahvala:
    53.846
    Pol:
    Ženski
    Lokacija:
    SF
    [​IMG]


    General
    Complete name : The.Victorias.Secret.Fashion.Show.2016.720p.WEB-DL.H264.ESub.AAC2.0-DDR.mp4
    Format : MPEG-4
    Format profile : Base Media
    Codec ID : isom
    File size : 1.10 GiB
    Duration : 43mn 20s
    Overall bit rate : 3 625 Kbps
    Writing application : Lavf56.15.102

    Video
    ID : 1
    Format : AVC
    Format/Info : Advanced Video Codec
    Format profile : [email protected]
    Format settings, CABAC : Yes
    Format settings, ReFrames : 4 frames
    Codec ID : avc1
    Codec ID/Info : Advanced Video Coding
    Duration : 43mn 20s
    Bit rate : 3 468 Kbps
    Width : 1 280 pixels
    Height : 720 pixels
    Display aspect ratio : 16:9
    Frame rate mode : Variable
    Frame rate : 29.970 fps
    Minimum frame rate : 29.412 fps
    Maximum frame rate : 30.303 fps
    Color space : YUV
    Chroma subsampling : 4:2:0
    Bit depth : 8 bits
    Scan type : Progressive
    Bits/(Pixel*Frame) : 0.126
    Stream size : 1.06 GiB (97%)

    Audio
    ID : 2
    Format : AAC
    Format/Info : Advanced Audio Codec
    Format profile : LC
    Codec ID : 40
    Duration : 43mn 20s
    Bit rate mode : Constant
    Bit rate : 105 Kbps
    Channel(s) : 2 channels
    Channel positions : Front: L R
    Sampling rate : 44.1 KHz
    Compression mode : Lossy
    Stream size : 32.5 MiB (3%)

    [​IMG] [​IMG] [​IMG] [​IMG] [​IMG] [​IMG] [​IMG]

    1.1 GB
    720p
    Hidden Content:
    **Skriveni sadržaj: Morate kliknuti 'Hvala' prije nego sto mognete vidjeti skriveni post.**
     
    vlado800 se ovo sviđa.

Preporučite stranicu