Signup Now
Da bi mogli da pišete na forumu, otvarate nove teme, kao i da vidite download
linkove morate prvo da se registrujete.

Ukoliko Vam nije jasan proces registracije, molimo vas da kliknete OVDE
Ako ste zaboravili lozinku, kliknite OVDE :)

Snow white and the seven dwarfs aka Снежана и седам патуљака (1937)

Diskusija u 'Sinhronizovani Crt. Film.' započeta od simark, 16.09.2018 u 19:17.

  1. simark

    simark

    Postova:
    71
    Zahvala:
    2.118
    Снежана и седам патуљака
    - на српском у широком екрану
    Snow white and the seven dwarfs-1937
    [​IMG]
    Један од најстаријих Дизнијевих цртаних у боји, и најбољих свакако - у новом издању.
    Са широким снимком (widescreen) у вишој резолуцији (HD) и одличном екипом глумаца
    за досад непознату српску синхронизацију. Остављен је и енглески звук, уживајте...

    [​IMG]
    Complete name :Снежана и седам патуљака - Snow White And The Seven Dwarfs (1937) 1080p-H264-AAC-Dual to788p-simark.mkv

    File size : 873 MiB
    Duration : 1 h 23 min

    Video
    Codec ID : V_MPEG4/ISO/AVC
    Bit rate : 1 210 kb/s
    Width : 1 280 pixels
    Height : 788 pixels
    Display aspect ratio : 16:10
    Frame rate : 23.976 (24000/1001) FPS
    Stream size : 721 MiB (83%)
    Writing library : x264 core 142

    Audio #1
    Codec ID : A_AAC-2
    Bit rate : 128 kb/s
    Channel(s) : 2 channels
    Sampling rate : 48.0 kHz
    Stream size : 76.0 MiB (9%)
    Language : Serbian

    Audio #2
    Codec ID : A_AAC-1
    Bit rate : 124 kb/s
    Channel(s) : 2 channels
    Sampling rate : 48.0 kHz
    Stream size : 73.9 MiB (8%)
    Language : English

    [​IMG]
    Hidden Content:
    **Skriveni sadržaj: Morate kliknuti 'Hvala' prije nego sto mognete vidjeti skriveni post.**
    Нема шифре...
     
    salipur021, sasazare i Jokso69 se ovo sviđa.

Preporučite stranicu