Signup Now
Da bi mogli da pišete na forumu, otvarate nove teme, kao i da vidite download
linkove morate prvo da se registrujete.

Ukoliko Vam nije jasan proces registracije, molimo vas da kliknete OVDE
Ako ste zaboravili lozinku, kliknite OVDE :)

Paddington 1,2 aka Меда Педингтон 1,2 (2014,2017)

Diskusija u 'Sinhronizovani Crt. Film.' započeta od simark, 19.04.2018.

  1. simark

    simark

    Postova:
    54
    Zahvala:
    1.605
    Меда Педингтон
    -на српском језику

    Paddington (2014) ser & eng

    [​IMG]

    Као увод у нови, други део ево најпре првог дела играног филма на српском (и енглеском) језику. Српски звук је одличан шестоканални а снимак је у вишој резолуцији. Уживајте...

    [​IMG]
    Complete name :Меда Педингтон - Paddington.2014.720p.BluRay.x264.Dual-simark.mkv

    File size : 879 MiB
    Duration : 1 h 35 min

    Video
    Codec ID : V_MPEG4/ISO/AVC
    Bit rate : 1 006 kb/s
    Width : 1 280 pixels
    Height : 536 pixels
    Display aspect ratio : 2.40:1
    Frame rate mode : Constant
    Frame rate : 23.976 (24000/1001) FPS
    Stream size : 685 MiB (78%)
    Writing library : x264 core 123 r2189 35cf912

    Audio #1
    Codec ID : A_AAC-2
    Bit rate : 188 kb/s
    Channel(s) : 6 channels
    Sampling rate : 48.0 kHz / 24.0 kHz
    Stream size : 128 MiB (15%)
    Language : Serbian

    Audio #2
    Codec ID : A_AAC-2
    Bit rate : 93.7 kb/s
    Channel(s) : 2 channels
    Sampling rate : 48.0 kHz
    Stream size : 63.8 MiB (7%)
    Language : English

    [​IMG]
    Hidden Content:
    **Skriveni sadržaj: Morate kliknuti 'Hvala' prije nego sto mognete vidjeti skriveni post.**

    Нема шифре, ускоро следи други део.
     
  2. simark

    simark

    Postova:
    54
    Zahvala:
    1.605
    Меда Педингтон 2
    -на српском језику

    Paddington 2 (2017) ser&eng
    [​IMG]

    Стиже и нови, други део филма на српском језику са лошијим (биоскопским) звуком, веома разумљивим. У вишој резолуцији, и овде остављен енглески звук као други језик.

    [​IMG]
    Complete name:Меда Педингтон 2 - Paddington.2.2017.720p.BluRay.x264.Dual-simark.mkv

    File size : 901 MiB
    Duration : 1 h 43 min

    Video
    Codec ID : V_MPEG4/ISO/AVC
    Bit rate : 1 050 kb/s
    Width : 1 280 pixels
    Height : 534 pixels
    Display aspect ratio : 2.40:1
    Original display aspect ratio : 2.40:1
    Frame rate mode : Constant
    Frame rate : 24.000 FPS
    Stream size : 776 MiB (86%)
    Writing library : x264 core 155

    Audio #1
    Codec ID : A_AAC-2
    Bit rate : 103 kb/s
    Channel(s) : 2 channels
    Sampling rate : 48.0 kHz
    Stream size : 76.0 MiB (8%)
    Language : Serbian


    Audio #2
    Codec ID : A_AAC-2
    Bit rate : 64.0 kb/s
    Channel(s) : 2 channels
    Sampling rate : 48.0 kHz / 24.0 kHz
    Stream size : 47.3 MiB (5%)
    Language : English

    [​IMG]
    Hidden Content:
    **Skriveni sadržaj: Morate kliknuti 'Hvala' prije nego sto mognete vidjeti skriveni post.**
    Нема шифре ни овде...
     
  3. joca64

    joca64 Uploader

    Postova:
    949
    Zahvala:
    19.393
    Pol:
    Muški
    Lokacija:
    Beograd
    Medvjedić Paddington 2 (2017) 720p BluRay - BD4YU

    [​IMG]

    MOVIE INFORMATION:
    Director: Paul King
    Stars: Ben Whishaw, Hugh Grant, Hugh Bonneville
    Genres: Animation, Adventure, Comedy
    Language: Sinhronizovano na Hrvatski
    Format: Matroska
    File Size: 918 MB
    Resolution: 1280x534
    Runtime: 1h 43min

    RADNJA FILMA:
    Sada kada se medvjedić Paddington sretno smjestio kod obitelji
    Brown, gdje je postao popularan član zajednice, širi radost i
    ljubav gdje god dođe. U potrazi za savršenim rođendanskim poklonom
    za 100. rođendan svoje voljene tete Lucy, Paddington naiđe na
    savršenu knjigu u antikvarnici te će morati odraditi niz poslova
    kako bi je mogao kupiti. Međutim, kada otkrije da je knjiga ukradena,
    Paddingoton i Brownsi će morati krenuti u potragu za lopovom.

    MOVIE SCREENSHOTS:

    [​IMG]
    [​IMG]
    [​IMG]
    [​IMG]
    [​IMG]

    YOUTUBE:



    IMDB:

    Kod:
    Zao nam je, ali morate biti registrovani/prijavljeni da vidite ovaj sadržaj!
    DOWNLOAD:

    Hidden Content:
    **Skriveni sadržaj: Morate kliknuti 'Hvala' prije nego sto mognete vidjeti skriveni post.**
     

Preporučite stranicu