Signup Now
Da bi mogli da pišete na forumu, otvarate nove teme, kao i da vidite download
linkove morate prvo da se registrujete.

Ukoliko Vam nije jasan proces registracije, molimo vas da kliknete OVDE
Ako ste zaboravili lozinku, kliknite OVDE :)

Muzicki Koncerti

Diskusija u 'Torrent Muzika' započeta od boki71, 31.01.2013.

  1. Nostradamus

    Nostradamus Legend

    Postova:
    25.041
    Zahvala:
    3.370
    Pol:
    Muški
    Lokacija:
    Stari Ras
    0035-VH1 Classic-Bobby Mcferrin - Dont Worry Be Happy


    [​IMG]


    Kod:
    Zao nam je, ali morate biti registrovani/prijavljeni da vidite ovaj sadržaj!
     
  2. Nostradamus

    Nostradamus Legend

    Postova:
    25.041
    Zahvala:
    3.370
    Pol:
    Muški
    Lokacija:
    Stari Ras
    0034-VH1 Classic-Paul Simon-You Can Call Me A1


    [​IMG]




    Kod:
    Zao nam je, ali morate biti registrovani/prijavljeni da vidite ovaj sadržaj!
     
  3. Nostradamus

    Nostradamus Legend

    Postova:
    25.041
    Zahvala:
    3.370
    Pol:
    Muški
    Lokacija:
    Stari Ras
    0033-VH1 Classic-John Waite-Missing You


    [​IMG]



    Kod:
    Zao nam je, ali morate biti registrovani/prijavljeni da vidite ovaj sadržaj!

     
  4. Nostradamus

    Nostradamus Legend

    Postova:
    25.041
    Zahvala:
    3.370
    Pol:
    Muški
    Lokacija:
    Stari Ras
    0031-VH1 Classic-Billy Jorl - Just The Way You Are

    [​IMG]



    Kod:
    Zao nam je, ali morate biti registrovani/prijavljeni da vidite ovaj sadržaj!
     
  5. Nostradamus

    Nostradamus Legend

    Postova:
    25.041
    Zahvala:
    3.370
    Pol:
    Muški
    Lokacija:
    Stari Ras
    0030-VH1 Classic-Bill Melody & Jennifer Warnes - (Ive Had) the Time of My Life)

    [​IMG]



    Kod:
    Zao nam je, ali morate biti registrovani/prijavljeni da vidite ovaj sadržaj!
    Kod:
    Zao nam je, ali morate biti registrovani/prijavljeni da vidite ovaj sadržaj!
    [/B]
     
  6. radja71

    radja71 Član

    Postova:
    503
    Zahvala:
    559
    Refreš
     
  7. Torrent Maniak

    Torrent Maniak Ja sam opasni čika....... Moderator

    Postova:
    27.620
    Zahvala:
    34.897
    Pol:
    Muški
    Lokacija:
    http://serbianforum.org/
    Guns N' Roses-Live From The O2 Arena London (2012)

    [​IMG]




    Guns N' Roses-Live From The O2 Arena London (2012) [HDTVRip.x264.AC3][Eng] (Size: 3.97 GB)



    00:00 Chinese Democracy.
    04:22 Welcome to the Jungle.
    09:03 It's So Easy.
    12:20 Mr. Brownstone.
    16:54 Sorry.
    23:07 Rocket Queen.
    29:34 Estranged.
    39:05 Better.
    44:31 14 Years (with Izzy Stradlin)*
    49:06 Live and Let Die.
    52:20 This I Love.
    58:11 Shackler's Revenge.
    1:01:52 Street of Dreams.
    1:06:57 You Could Be Mine (with Izzy Stradlin)*
    1:13:07 Sweet Child O' Mine.
    1:18:51 Another Brick in the Wall Part 2 (Pink Floyd cover)
    1:24:06 Axl Rose Piano Solo (Gran Torino/Goodbye Yellow)
    1:25:11 November Rain.
    1:33:50 Don't Cry.
    1:39:23 Civil War
    1:47:12 Dead Flowers (with Izzy Stradlin)*
    1:52:09 Knockin' on Heaven's Door (with Izzy Stradlin)*
    2:03:22 Nightrain (with Izzy Stradlin)*
    2:09:39 Jam (with Izzy Stradlin) (Chip Away the Stone)*
    2:12:06 Paradise City (with Izzy Stradlin)*


    Line-up:

    ►Axl Rose: Vocals / Piano
    ►Izzy Strandlin - Guitars on *
    ►Ron "Bumblefoot" Thal: Guitars
    ►DJ Ashba: Guitars
    ►Richard Fortus: Guitars
    ►Dizzy Reed: Keyboards
    ►Frank Ferrer: Drums
    ►Tommy Stinson: Bass
    ►Chris Pitman: Keyboards




    Kod:
    Zao nam je, ali morate biti registrovani/prijavljeni da vidite ovaj sadržaj!




     
  8. Torrent Maniak

    Torrent Maniak Ja sam opasni čika....... Moderator

    Postova:
    27.620
    Zahvala:
    34.897
    Pol:
    Muški
    Lokacija:
    http://serbianforum.org/
    Guns N' Roses Appetite for Democracy – Live at the Hard Rock Casino, Las Vegas (2014)


    [​IMG] [​IMG]


    Legendary rock band Guns N' Roses have taken the desert by storm and laid claim on Las Vegas' Hard Rock Casino. This absolute ambush on the city of sin, captured in HD/3D, puts you in the best seat in the house for an electrifying once in a lifetime live concert performance. Filmed during GNR’s Appetite For Democracy residency at The Joint in November 2012, celebrating twenty-five years of “Appetite for Destruction”and four years of “Chinese Democracy”, the elaborate Vegas style production features Rock Icon Axl Rose at the top of his game with his current lineup performing some of GNR’s biggest hits including “Welcome To The Jungle”, “Sweet Child Of Mine”, “Mr Brownstone”, “November Rain”, “Chinese Democracy”, Dylan’s “Knockin’ On Heaven’s Door”, “Nightrain”, McCartney’s “Live And Let Die”, “Paradise City”, and many more hard rockin hits! This is the first live concert release from Guns N’ Roses, since Use Your Illusion II in 1992. Sin City will never be the same.

    Tracklist:

    01. Chinese Democracy
    02. Welcome To The Jungle
    03. It's So Easy
    04. Mr. Brownstone
    05. Estranged
    06. Rocket Queen
    07. Live And Let Die
    08. This I Love
    09. Better
    10. Motivation
    11. Catcher In The Rye
    12. Street Of Dreams
    13. You Could Be Mine
    14. Sweet Child O' Mine
    15. Another Brick In The Wall part 2
    16. November Rain
    17. Objectify
    18. Don't Cry
    19. Civil War
    20. The Seeker
    21. Knockin' On Heaven's Door
    22. Nightrain
    23. Used To Love Her
    24. Patience
    25. Paradise City





    Technical Data:

    Format : MPEG-4
    Format profile : Base Media
    Codec ID : isom
    File size : 3.38 GiB
    Duration : 2h 43mn
    Overall bit rate : 2 960 Kbps
    Movie name : Guns N' Roses: Appetite for Democracy – Live at the Hard Rock Casino, Las Vegas (2014) (miniHD-gixerk9)
    Writing application : Lavf55.43.100

    Video
    ID : 1
    Format : AVC
    Format/Info : Advanced Video Codec
    Format profile : [email protected]
    Format settings, CABAC : Yes
    Format settings, ReFrames : 2 frames
    Codec ID : avc1
    Codec ID/Info : Advanced Video Coding
    Duration : 2h 43mn
    Bit rate : 2 187 Kbps
    Width : 1 920 pixels
    Height : 1 080 pixels
    Display aspect ratio : 16:9
    Frame rate mode : Constant
    Frame rate : 23.976 fps
    Color space : YUV
    Chroma subsampling : 4:2:0
    Bit depth : 8 bits
    Scan type : Progressive
    Bits/(Pixel*Frame) : 0.044
    Stream size : 2.50 GiB (74%)
    Writing library : x264 core 142 r2431
    Color primaries : BT.709
    Transfer characteristics : BT.709
    Matrix coefficients : BT.709

    Audio #1
    ID : 2
    Format : AC-3
    Format/Info : Audio Coding 3
    Mode extension : CM (complete main)
    Format settings, Endianness : Big
    Codec ID : ac-3
    Duration : 2h 43mn
    Bit rate mode : Constant
    Bit rate : 384 Kbps
    Channel(s) : 6 channels
    Channel positions : Front: L C R, Side: L R, LFE
    Sampling rate : 48.0 KHz
    Bit depth : 16 bits
    Compression mode : Lossy
    Stream size : 449 MiB (13%)
    Language : English

    Audio #2
    ID : 3
    Format : AC-3
    Format/Info : Audio Coding 3
    Mode extension : CM (complete main)
    Format settings, Endianness : Big
    Codec ID : ac-3
    Duration : 2h 43mn
    Bit rate mode : Constant
    Bit rate : 384 Kbps
    Channel(s) : 2 channels
    Channel positions : Front: L R
    Sampling rate : 48.0 KHz
    Bit depth : 16 bits
    Compression mode : Lossy
    Stream size : 449 MiB (13%)
    Language : English





    Kod:
    Zao nam je, ali morate biti registrovani/prijavljeni da vidite ovaj sadržaj!



     
  9. maja_jevtic

    maja_jevtic Urednik

    Postova:
    9.129
    Zahvala:
    10.026
    Pol:
    Ženski
    Guns N Roses - Welcome To The Videos


    [​IMG]




    Tracklist:

    01. Welcome To The Jungle
    02. Sweet Child Of Mine
    03. Paradise City
    04. Patience
    05. Don't Cry
    06. Live And Let Die
    07. November Rain
    08. Yesterdays
    09. The Garden
    10. Dead Horse
    11. Garden Of Eden
    12. Estranged
    13. Since I Don't Have You + Credits


    General
    Complete name : Guns N' Roses - Welcome To The Videos DVDRip XviD.avi
    Format : AVI
    Format/Info : Audio Video Interleave
    File size : 1.00 GiB
    Duration : 1h 10mn
    Overall bit rate : 2 042 Kbps
    Writing application : VirtualDubMod 1.5.10.3
    Writing library : VirtualDubMod build 2550/release

    Video
    ID : 0
    Format : MPEG-4 Visual
    Format profile : Advanced [email protected]
    Format settings, BVOP : 2
    Format settings, QPel : No
    Format settings, GMC : No warppoints
    Format settings, Matrix : Default (H.263)
    Codec ID : XVID
    Codec ID/Hint : XviD
    Duration : 1h 10mn
    Bit rate : 1 904 Kbps
    Width : 640 pixels
    Height : 480 pixels
    Display aspect ratio : 4:3
    Frame rate : 23.976 fps
    Color space : YUV
    Chroma subsampling : 4[​IMG]0
    Bit depth : 8 bits
    Scan type : Progressive
    Compression mode : Lossy
    Bits/(Pixel*Frame) : 0.259
    Stream size : 957 MiB (93%)
    Writing library : XviD 1.2.1 (UTC 2008-12-04)

    Audio
    ID : 1
    Format : MPEG Audio
    Format version : Version 1
    Format profile : Layer 3
    Mode : Joint stereo
    Mode extension : MS Stereo
    Codec ID : 55
    Codec ID/Hint : MP3
    Duration : 1h 10mn
    Bit rate mode : Constant
    Bit rate : 128 Kbps
    Channel(s) : 2 channels
    Sampling rate : 48.0 KHz
    Compression mode : Lossy
    Stream size : 64.3 MiB (6%)
    Alignment : Aligned on interleaves
    Interleave, duration : 42 ms (1.00 video frame)
    Interleave, preload duration : 504 ms
    Writing library : LAME3.99r
    Encoding settings : -m j -V 4 -q 2 -lowpass 17 -b 128


    [​IMG]





    [​IMG]





    [​IMG]
     

    Dodate datoteke:

    bagi65 i denimiko1 se ovo sviđa.
  10. maja_jevtic

    maja_jevtic Urednik

    Postova:
    9.129
    Zahvala:
    10.026
    Pol:
    Ženski
    Iron Maiden - Rock am Ring DVD PAL (2014)


    [​IMG]




    Rising Mercury (intro)

    01. Moonchild
    02. Can I Play with Madness
    03. The Prisoner
    04. 2 Minutes to Midnight
    05. Revelations
    06. The Trooper
    07. The Number of the Beast
    08. Phantom of the Opera
    09. Run to the Hills
    10. Wasted Years
    11. Seventh Son of a Seventh Son
    12. Wrathchild
    13. Fear of the Dark
    14. Iron Maiden
    15. Churchill's Speech
    16. Aces High
    17. The Evil That Men Do
    18. Sanctuary




    [​IMG]




    Band:

    Bruce Dickinson - Vocals
    Dave Murray - Lead and Rhytm Guitar
    Adrian Smith - Lead and Rhytm Guitar
    Steve Harris - Bass Guitar
    Nicko McBrain - Drums
    Janick Gers - Guitars


    Gentre: Heavy metal
    Country: GB
    Time: 1:46:53
    Size: 5,23GB
    Date: 05.06.2014
    Place: Seat Centerstage, Nurburgring, Germany
    Source: DVB-S Recording w/Topfield
    Video: PAL 50Hz 720x576 16:9 6,72Mbps
    Audio: MP2 2.0 48KHz 192Kbps
     

    Dodate datoteke:

Preporučite stranicu