Signup Now
Da bi mogli da pišete na forumu, otvarate nove teme, kao i da vidite download
linkove morate prvo da se registrujete.

Ukoliko Vam nije jasan proces registracije, molimo vas da kliknete OVDE
Ako ste zaboravili lozinku, kliknite OVDE :)

Ledeno Doba Collection

Diskusija u 'Sinhronizovani Crt. Film.' započeta od xandor, 12.11.2016.

  1. xandor

    xandor Uploader

    Postova:
    1.024
    Zahvala:
    3.467
    Pol:
    Muški
    Ice Age: Collision Course / Ledeno Doba: Veliki Udar (2016) SRSinh 720p BRRip
    - sinhronizovano srpski -


    [​IMG]

    Kod:
    Zao nam je, ali morate biti registrovani/prijavljeni da vidite ovaj sadržaj!
    Skretova epska potraga za odbeglim žirom ovoga puta će ga katapultirati u svemir, gde će se dogoditi niz kosmičkih događaja koji prete uništenju celog sveta. Kako bi se spasili od katastrofe koja im preti, Meni, Sid i Dijego, moraće da napuste svoj dom i krenu u nove avanture i to u egzotične zemlje u kojima upoznaju mnoštvo novih likova. Film će biti i sinhronizovan na srpski, a glasove glavnim junacima će pozajmiti već poznata ekipa glumaca iz prethodnih delova. Glas glavnom junaku, mamutu Meniju, pozajmio je glumac Nikola Đuričko, lenjivca igra Srđan Miletić. Voji Brajoviću studio 20th Century Fox poverio je ulogu tigra Dijega, dok Isidora Minić sihronizuje mamuta Eli.

    [​IMG]

    [​IMG]

    Kod:
    Zao nam je, ali morate biti registrovani/prijavljeni da vidite ovaj sadržaj!
     
    Poslednja izmena od urednika: 12.07.2018
  2. 10jabuka

    10jabuka Član

    Postova:
    266
    Zahvala:
    194
  3. simark

    simark

    Postova:
    54
    Zahvala:
    1.614
    Ледено доба 5 - Велики удар
    на српском језику-две верзије
    Ice age 5 - Collision course (ser)
    [​IMG]

    Задњи део чувеног серијала на српском (одличан звук).
    Филм доноси нове авантуре старе (и нове) екипе. Уживајте...
    [​IMG] Мања резолуција, стерео звук:
    Complete name :Ледено доба 5новст-Ice.Age.Collision.Course.2016.HDRip.XViD.MP3-simark.avi

    File size : 737 MiB
    Duration : 1 h 34 min

    Video
    Codec ID/Hint : XviD
    Bit rate : 898 kb/s
    Width : 640 pixels
    Height : 352 pixels
    Display aspect ratio : 16:9
    Frame rate mode : Constant
    Frame rate : 23.976 (24000/1001) FPS
    Stream size : 606 MiB (82%)
    Writing library : XviD 64

    Audio
    Codec ID/Hint : MP3
    Bit rate mode : Constant
    Bit rate : 192 kb/s
    Channel(s) : 2 channels
    Sampling rate : 48.0 kHz
    Stream size : 130 MiB (18%)
    Writing library : LAME3.99.5
    Language : Serbian

    [​IMG]
    Hidden Content:
    **Skriveni sadržaj: Morate kliknuti 'Hvala' prije nego sto mognete vidjeti skriveni post.**



    [​IMG]
    [​IMG]Висока резолуција, шестоканални звук:
    Complete name :Ледено доба 5нов-Ice.Age-Collision.Course.2016.1080p.BRRip.x264.AC3-simark.mkv

    File size : 1.53 GiB
    Duration : 1h 34mn

    Video
    Codec ID : V_MPEG4/ISO/AVC
    Bit rate : 1 999 Kbps
    Width : 1 920 pixels
    Height : 800 pixels
    Display aspect ratio : 2.40:1
    Frame rate mode : Constant
    Frame rate : 23.976 (24000/1001) fps
    Stream size : 1.32 GiB (86%)
    Writing library : x264 core 148 r2638 7599210

    Audio
    Codec ID : A_AC3
    Bit rate mode : Constant
    Bit rate : 320 Kbps
    Channel(s) : 6 channels
    Sampling rate : 48.0 KHz
    Stream size : 216 MiB (14%)
    Language : Serbian
    [​IMG]
    Hidden Content:
    **Skriveni sadržaj: Morate kliknuti 'Hvala' prije nego sto mognete vidjeti skriveni post.**

    Нема шифри...
     

Preporučite stranicu