Signup Now
Da bi mogli da pišete na forumu, otvarate nove teme, kao i da vidite download
linkove morate prvo da se registrujete.

Ukoliko Vam nije jasan proces registracije, molimo vas da kliknete OVDE
Ako ste zaboravili lozinku, kliknite OVDE :)

Filmovi Sa prevodom

Diskusija u 'Torrent Filmovi' započeta od bane74, 19.02.2015.

  1. Iwaan

    Iwaan

    Postova:
    13.420
    Zahvala:
    20.315
    Pol:
    Muški
    Lokacija:
    SerbianForum.org
    Ana Maria in Novela Land 2015 SrbSubs 720p HDTV x264 W4F

    Ana Maria in Novela Land 2015 SrbSubs 720p HDTV x264 W4F

     



    Ana Maria in Novela Land 2015 720p HDTV x264 W4F
    Language(s): English
    1hr 26mn | 720p HDTV | 1280 x 720 | Matroska | 1.88 GB
    Genre(s): Comedy

    Ana Maria is having a bad day until she magically switches places with the main character of her favorite telenovela. As she struggles to escape from Novela Land, Ana Maria finally understands why her real life was such a mess.

    Screens:


     
     
     
     
     
     
     
     


     

    Hidden Content:
    **Skriveni sadržaj: Morate kliknuti 'Hvala' prije nego sto mognete vidjeti skriveni post.**
     
    ddunaj8, multi789 i ckebo se ovo sviđa.
  2. Iwaan

    Iwaan

    Postova:
    13.420
    Zahvala:
    20.315
    Pol:
    Muški
    Lokacija:
    SerbianForum.org
    Marquis (1989) + prijevod


    Radnja se odvija u vremenu od pre Francuske revolucije, kada su zatvarani različiti politički neistomišljenici: žena koju je silovao i oplodio kralj, šef policije optužen za prodaju pokvarenog mesa i Markiz, nepravedno optužen za pokušaje da svrgne kralja.
    Markiza zanima samo rad na njegovim devijantnim pričama, a njegovo telo žudi za seksom (kandidat je tamničar sklon homoseksualizmu).
    Da bi kralja oslobodio sumnje, korumpirani sveštenik namešta optužbu da je Markiz silovao ženu i napravio joj dete, a ujedno krade njegove priče i objavljuje ih u svoju korist.
    Stvari će doći na svoje kada narod ustane protiv tiranije.




    Režija: Henri Xhonneux

    Scenarij: Roland Topor, Henri Xhonneux, po delu Marquis de Sade

    Glasovi: Francois Marthouret, Valerie Kling, Michel Robin, Isabelle Wolfe...














     










    Hidden Content:
    **Skriveni sadržaj: Morate kliknuti 'Hvala' prije nego sto mognete vidjeti skriveni post.**
     
    DUBO se ovo sviđa.
  3. Iwaan

    Iwaan

    Postova:
    13.420
    Zahvala:
    20.315
    Pol:
    Muški
    Lokacija:
    SerbianForum.org
    Katyn 2007


    Katyn 2007
     
    Director: Andrzej Wajda
    Writers: Andrzej Mularczyk (story), Przemyslaw Nowakowski (screenplay)
    Stars: Andrzej Chyra, Maja Ostaszewska, Artur Zmijewski
    Music by Krzysztof Penderecki

     

    Katyn.2007.DVDRip.AC3.DivX.avi
    **********************************
    > FiLE.iNFO
    >
    > TiTLE......[ Katyn
    > YEAR.......[ 2007
    > GENRE......[ Drama / History / War
    > RUNTiME....[ 1 57
    > iMDB RATE..[ User Rating: 7.1/10 (1,141 votes)
    > iMDB URL...[ http://www.imdb.com/title/tt0879843/
    >
    > AUDiO......[ AC3 Dolby 5.1 (6 chnls) 48000Hz 448 kb/s
    > LANGUAGE...[ POLISH
    > SUBS.......[ ENGLISH (file.srt)
    > ViDEO......[ 941 kbps DivX 25.000 fps
    > RESOLUTiON.[ 624 x 352
    > DAR........[ 1.773 (39:22)
    > DivX ......[ 6
    > FiLES......[ 1
    > SiZE.......[ 1.14 GB (1,170 MB / 1,198,170 KB)
    > SOURCE.....[ DVDR PAL
    > SUBTITLES..[ SRPSKI

    Awards: Nominated for Oscar 2008.
    Best Foreign Language Film of the Year Poland.

    *****************************************************

    Radnja:

    Nakon nacističkog osvajanja Poljske 1939. počinje ulazak sovjetskih postrojbi s istoka. Među mnoštvom koje bježi od obje okupacijske vojske nalaze se Anna (M. Ostaszewska) koja traga za mužem, poljskim časnikom Andrzejom (A. Zmijewski) koji je odbio njezine molbe da pobjegnu iz ratnog kaosa i priključio se svojoj vojsci, te Andrzejev prijatelj Jerzy (A. Chyra). Uhićeni poljski general (J. Englert) i njegova ponosna žena Roza (D. Stenka) odbijaju prisilu nacističkih vlasti da se uključe u antisovjetsku propagandu. Nakon rata sestre Agnieszka (M. Cielecka) i Irena (A. Glinska) nađu se na suprotnim stranama. Iz Andrzejewa dnevnika saznajemo što se točno zbilo u ožujku 1940. godine u Katynskoj šumi...

     
     
     
     
     
     


    Hidden Content:
    **Skriveni sadržaj: Morate kliknuti 'Hvala' prije nego sto mognete vidjeti skriveni post.**
     
    dopre i albinof se ovo sviđa.
  4. Iwaan

    Iwaan

    Postova:
    13.420
    Zahvala:
    20.315
    Pol:
    Muški
    Lokacija:
    SerbianForum.org
    Mine Vaganti / Loose Cannons (2010) + prijevod


    Tomazo je najmlađe dete u velikoj ekscentričnoj porodici koja poseduje fabriku testenine: njegova majka Stefanija je puna ljubavi ali opterećena buržoaskim konvencijama; njegov otac Vinćenco ima nerealno visoka očekivanja od svoje dece; sestra Elena je frustrirana domaćica; brat Antonio radi sa ocem u fabrici; a tu je i buntovna baka, zarobljena u sećanju na jednu nemoguću ljubav.
    Tomazo, ambiciozni pisac, dolazi u Rim na važnu porodičnu večeru na kojoj će otac prepustiti upravljanje fabrikom njemu i njegovom bratu. Tomazo planira da tom prilikom objavi da je homoseksualac, međutim, biva preduhitren od strane svog brata koji, na Tomazovo iznenađenje i zaprepašćenje svih ostalih, otkriva sopstvenu tajnu! Vinćenco naređuje Antoniju da napusti kuću, i proteruje ga i iz porodice i iz fabrike. Nakon toga doživljava srčani napad i cela porodica biva jako potrešena. Tomazo nevoljno preuzima upravljanje fabrikom.
    Nedostaju mu njegovi prijatelji i život u Rimu, ali ne sme rizikovati dalje pogoršanje zdravstvenog stanja svog oca. Neočekivana poseta njegovih prijatelja otkriva još porodičnih tajni…




    Režija: Ferzan Ozpetek

    Scenarij: Ferzan Ozpetek, Ivan Cotroneo

    Uloge:
    Riccardo Scamarcio ... Tommaso Cantone
    Nicole Grimaudo ... Alba Brunetti
    Alessandro Preziosi ... Antonio Cantone
    Lunetta Savino ... Stefania Cantone
    Ennio Fantastichini ... Vincenzo Cantone
    Elena Sofia Ricci ... Luciana Cantone
    Ilaria Occhini ... La nonna
    Bianca Nappi ... Elena - Tommaso's sister
    Daniele Pecci ... Andrea
    Carolina Crescentini ... Nonna da giovane
    Massimiliano Gallo ... Salvatore - Elena's Husband
    Paola Minaccioni ... Teresa
    Emanuela Gabrieli ... Giovanna
    Giorgio Marchesi ... Nicola
    Matteo Taranto ... Domenico














     









    Hidden Content:
    **Skriveni sadržaj: Morate kliknuti 'Hvala' prije nego sto mognete vidjeti skriveni post.**
     
    multi789 se ovo sviđa.
  5. Iwaan

    Iwaan

    Postova:
    13.420
    Zahvala:
    20.315
    Pol:
    Muški
    Lokacija:
    SerbianForum.org
    Edgar Allan Poes Lighthouse Keeper 2016 CroSubs 720p BRRip XviD AC3 RARBG

    Edgar Allan Poes Lighthouse Keeper 2016 CroSubs 720p BRRip XviD AC3 RARBG

     



    Edgar Allan Poes Lighthouse Keeper 2016 720p BRRip XviD AC3 RARBG
    Language(s): English
    1hr 29mn | 720p BRRip | 1280 x 720 | AVI | 2.76 GB
    Genre(s): Horror

    Marooned on a remote peninsula and haunted by frightening specters, a young man must confront the grotesque denizens of the night, or heed the Lighthouse Keeper's cryptic warning to, 'Always keep a light burning!'

    Screens:


     
     
     
     
     
     
     
     


    Hidden Content:
    **Skriveni sadržaj: Morate kliknuti 'Hvala' prije nego sto mognete vidjeti skriveni post.**
     
    mehaga i vlasinac se ovo sviđa.
  6. Iwaan

    Iwaan

    Postova:
    13.420
    Zahvala:
    20.315
    Pol:
    Muški
    Lokacija:
    SerbianForum.org
    Smaragdgrün (2016) + Prijevod

     

     

    Radnja:
    Nakon prethodnih borbi Gwendolyn (Maria Ehrich), ona se osjeća umorno i izgubljeno. Ali njenoj borbi ne nazire se kraj; na redu je putovanje u prošlost…



    General

    Complete name : /home/idiomax2016/rtorrent/downloads/Smaragdgrün 2016 CroSubs BDRip x264 German AC3 5 1 MULTiPLEX/mp-smaragdgruen-sd.mkv
    Format : Matroska
    Format version : Version 4 / Version 2
    File size : 905 MiB
    Duration : 1h 48mn
    Overall bit rate : 1 171 Kbps
    Encoded date : UTC 2016-12-03 10:03:12
    Writing application : mkvmerge v8.0.0 ('Til The Day That I Die') 64bit
    Writing library : libebml v1.3.1 + libmatroska v1.4.2
    DURATION : 01:47:37.440000000
    NUMBER_OF_FRAMES : 1417
    NUMBER_OF_BYTES : 53500
    _STATISTICS_WRITING_APP : mkvmerge v8.0.0 ('Til The Day That I Die') 64bit
    _STATISTICS_WRITING_DATE_UTC : 2016-12-03 10:03:12
    _STATISTICS_TAGS : BPS DURATION NUMBER_OF_FRAMES NUMBER_OF_BYTES

    Video
    ID : 1
    Format : AVC
    Format/Info : Advanced Video Codec
    Format profile : [email protected]
    Format settings, CABAC : Yes
    Format settings, ReFrames : 5 frames
    Codec ID : V_MPEG4/ISO/AVC
    Duration : 1h 48mn
    Bit rate : 764 Kbps
    Width : 720 pixels
    Height : 302 pixels
    Display aspect ratio : 2.40:1
    Frame rate mode : Constant
    Frame rate : 25.000 fps
    Color space : YUV
    Chroma subsampling : 4 0
    Bit depth : 8 bits
    Scan type : Progressive
    Bits/(Pixel*Frame) : 0.141
    Stream size : 590 MiB (65%)
    Writing library : x264 core 148 r2705 3f5ed56
    Language : English
    Default : Yes
    Forced : No
    DURATION : 01:48:01.800000000
    NUMBER_OF_FRAMES : 162045
    NUMBER_OF_BYTES : 637415382
    _STATISTICS_WRITING_APP : mkvmerge v8.0.0 ('Til The Day That I Die') 64bit
    _STATISTICS_WRITING_DATE_UTC : 2016-12-03 10:03:12
    _STATISTICS_TAGS : BPS DURATION NUMBER_OF_FRAMES NUMBER_OF_BYTES

    Audio
    ID : 2
    Format : AC-3
    Format/Info : Audio Coding 3
    Mode extension : CM (complete main)
    Format settings, Endianness : Big
    Codec ID : A_AC3
    Duration : 1h 48mn
    Bit rate mode : Constant
    Bit rate : 384 Kbps
    Channel(s) : 6 channels
    Channel positions : Front: L C R, Side: L R, LFE
    Sampling rate : 48.0 KHz
    Bit depth : 16 bits
    Compression mode : Lossy
    Delay relative to video : 16s 400ms
    Stream size : 297 MiB (33%)
    Language : German
    Default : Yes
    Forced : Yes

    Text #1
    ID : 3
    Format : UTF-8
    Codec ID : S_TEXT/UTF8
    Codec ID/Info : UTF-8 Plain Text
    Language : German
    Default : Yes
    Forced : Yes

    Text #2
    ID : 4
    Format : UTF-8
    Codec ID : S_TEXT/UTF8
    Codec ID/Info : UTF-8 Plain Text
    Language : German
    Default : No
    Forced : No




    Hidden Content:
    **Skriveni sadržaj: Morate kliknuti 'Hvala' prije nego sto mognete vidjeti skriveni post.**
     
  7. Iwaan

    Iwaan

    Postova:
    13.420
    Zahvala:
    20.315
    Pol:
    Muški
    Lokacija:
    SerbianForum.org
    Ice Cube (1991-2016)

    Ice Cube 21 Movi Collection ExYu Titlovi DVDRip-PoPCB


     

     

     

    ----------------------------------------------------------------------------
    22 Jump Street (2014)

     

    http://www.imdb.com/title/tt2294449/
    http://tvprofil.net/show/2882412/22-jump-street
    -----------------------------------------------------------------------------
    Anaconda (1997)

     

    http://www.imdb.com/title/tt0118615/
    http://tvprofil.net/show/1494/anaconda

     

    General
    Complete name : Anaconda (1997)\Anaconda.avi
    Format : AVI
    Format/Info : Audio Video Interleave
    File size : 662 MiB
    Duration : 1h 32mn
    Overall bit rate : 1 003 Kbps

    Video
    ID : 0
    Format : MPEG-4 Visual
    Codec ID : DIV3
    Codec ID/Hint : DivX 3 Low
    Duration : 1h 29mn
    Bit rate : 902 Kbps
    Width : 592 pixels
    Height : 256 pixels
    Display aspect ratio : 2.35:1
    Frame rate : 29.970 fps
    Color space : YUV
    Chroma subsampling : 4 0
    Bit depth : 8 bits
    Compression mode : Lossy
    Bits/(Pixel*Frame) : 0.199
    Stream size : 577 MiB (87%)
    Title : Videostream

    Audio
    ID : 1
    Format : MPEG Audio
    Format version : Version 1
    Format profile : Layer 3
    Mode : Joint stereo
    Mode extension : MS Stereo
    Codec ID : 55
    Codec ID/Hint : MP3
    Duration : 1h 32mn
    Source duration : 1h 29mn
    Bit rate mode : Constant
    Bit rate : 128 Kbps
    Channel(s) : 2 channels
    Sampling rate : 48.0 KHz
    Compression mode : Lossy
    Stream size : 81.8 MiB (12%)
    Alignment : Split accross interleaves
    Interleave, duration : 968 ms (29.00 video frames)
    Title : Audiostream 1
    -----------------------------------------------------------------------------
    Are We Done Yet? (2007)

     

    http://www.imdb.com/title/tt0422774/
    http://tvprofil.net/show/641970/are-we-done-yet
    -----------------------------------------------------------------------------
    Are We There Yet? (2005)

     

    http://www.imdb.com/title/tt0368578/
    http://tvprofil.net/show/930255/are-we-there-yet
    -----------------------------------------------------------------------------
    Barbershop (2002)

     

    http://www.imdb.com/title/tt0303714/
    http://tvprofil.net/show/3338/barbershop
    ------------------------------------------------------------------------------
    Barbershop 2: Back in Business (2004)

     

    http://www.imdb.com/title/tt0337579/
    http://tvprofil.net/show/61086...p-2-back-in-business
    ------------------------------------------------------------------------------
    Barbershop: The Next Cut (2016)

     

    http://www.imdb.com/title/tt3628584/
    ------------------------------------------------------------------------------
    Boyz n the Hood (1991)

     

    http://www.imdb.com/title/tt0101507/
    http://tvprofil.net/show/7178/boyz-in-the-hood

     

    General
    Complete name : Boyz.n.The.Hood.1991.720p.BRrip.avi
    Format : AVI
    Format/Info : Audio Video Interleave
    Format profile : OpenDML
    File size : 1.08 GiB
    Duration : 1h 52mn
    Overall bit rate : 1 375 Kbps
    Movie name : Boyz.n.The.Hood.1991.720p.BRrip.x264.YIFY
    Director : WinX HD Video Converter Deluxe
    Writing application : Lavf56.40.101

    Video
    ID : 0
    Format : MPEG-4 Visual
    Format profile : [email protected]
    Format settings, BVOP : No
    Format settings, QPel : No
    Format settings, GMC : No warppoints
    Format settings, Matrix : Default (H.263)
    Codec ID : XVID
    Codec ID/Hint : XviD
    Duration : 1h 52mn
    Bit rate : 1 167 Kbps
    Width : 720 pixels
    Height : 384 pixels
    Display aspect ratio : 1.85:1
    Frame rate : 23.976 fps
    Color space : YUV
    Chroma subsampling : 4 0
    Bit depth : 8 bits
    Scan type : Progressive
    Compression mode : Lossy
    Bits/(Pixel*Frame) : 0.176
    Stream size : 936 MiB (85%)
    Writing library : Lavc56.60.100

    Audio
    ID : 1
    Format : MPEG Audio
    Format version : Version 1
    Format profile : Layer 3
    Mode : Joint stereo
    Mode extension : MS Stereo
    Codec ID : 55
    Codec ID/Hint : MP3
    Duration : 1h 52mn
    Bit rate mode : Constant
    Bit rate : 192 Kbps
    Channel(s) : 2 channels
    Sampling rate : 48.0 KHz
    Compression mode : Lossy
    Stream size : 154 MiB (14%)
    Alignment : Aligned on interleaves
    Interleave, duration : 24 ms (0.58 video frame)
    Interleave, preload duration : 168 ms
    Writing library : LAME3.99.5
    ------------------------------------------------------------------------------
    Friday (1995)

     

    http://www.imdb.com/title/tt0113118/
    http://tvprofil.net/show/8167/friday
    ------------------------------------------------------------------------------
    Friday After Next (2002)

     

    http://www.imdb.com/title/tt0293815/
    http://tvprofil.net/show/3926/friday-after-next
    ------------------------------------------------------------------------------
    Higher Learning (1995)

     

    http://www.imdb.com/title/tt0113305/
    http://tvprofil.net/show/10986/higher-learning
    -------------------------------------------------------------------------------
    Lottery Ticket (2010)

     

    http://www.imdb.com/title/tt0979434/
    http://tvprofil.net/show/1742954/lottery-ticket
    ------------------------------------------------------------------------------
    Next Friday (2000)

     

    http://www.imdb.com/title/tt0195945/
    http://tvprofil.net/show/1743779/next-friday
    -------------------------------------------------------------------------------
    Ride Along (2014)

     

    http://www.imdb.com/title/tt1408253/
    http://tvprofil.net/show/3671190/ride-along

     

    General
    Complete name : Ride Along (2014)\Ride Along.avi
    Format : AVI
    Format/Info : Audio Video Interleave
    File size : 700 MiB
    Duration : 1h 39mn
    Overall bit rate : 982 Kbps
    Writing application : VirtualDubMod 1.6.0.0 SURROUND (build 2560/release)
    Writing library : VirtualDubMod build 2560/release

    Video
    ID : 0
    Format : MPEG-4 Visual
    Format profile : Advanced [email protected]
    Format settings, BVOP : 2
    Format settings, QPel : No
    Format settings, GMC : No warppoints
    Format settings, Matrix : Default (H.263)
    Codec ID : XVID
    Codec ID/Hint : XviD
    Duration : 1h 39mn
    Bit rate : 845 Kbps
    Width : 640 pixels
    Height : 268 pixels
    Display aspect ratio : 2.40:1
    Frame rate : 23.976 (23976/1000) fps
    Color space : YUV
    Chroma subsampling : 4 0
    Bit depth : 8 bits
    Scan type : Progressive
    Compression mode : Lossy
    Bits/(Pixel*Frame) : 0.205
    Stream size : 602 MiB (86%)
    Writing library : XviD 1.2.1 (UTC 2008-12-04)

    Audio
    ID : 1
    Format : MPEG Audio
    Format version : Version 1
    Format profile : Layer 3
    Mode : Joint stereo
    Mode extension : MS Stereo
    Codec ID : 55
    Codec ID/Hint : MP3
    Duration : 1h 39mn
    Bit rate mode : Constant
    Bit rate : 128 Kbps
    Channel(s) : 2 channels
    Sampling rate : 48.0 KHz
    Compression mode : Lossy
    Stream size : 91.2 MiB (13%)
    Alignment : Aligned on interleaves
    Interleave, duration : 42 ms (1.00 video frame)
    Interleave, preload duration : 504 ms
    -------------------------------------------------------------------------------
    Ride Along 2 (2016)

     

    http://www.imdb.com/title/tt2869728/
    http://tvprofil.net/show/3923981/ride-along-2
    ------------------------------------------------------------------------------
    The Janky Promoters (2009)

     

    http://www.imdb.com/title/tt1210071/
    -------------------------------------------------------------------------------
    The Longshots (2008)

     

    http://www.imdb.com/title/tt1091751/
    http://tvprofil.net/show/4299764/longshots
    -------------------------------------------------------------------------------
    The Players Club (1998)

     

    http://www.imdb.com/title/tt0119905/
    http://tvprofil.net/show/5632/players-club
    --------------------------------------------------------------------------------
    Three Kings (1999)

     

    http://www.imdb.com/title/tt0120188/
    http://tvprofil.net/show/6600/three-kings

     

    General
    Complete name : Three.Kings.1999.720p.BrRip.x264.YIFY.avi
    Format : AVI
    Format/Info : Audio Video Interleave
    Format profile : OpenDML
    File size : 1.34 GiB
    Duration : 1h 54mn
    Overall bit rate : 1 672 Kbps
    Movie name : Three.Kings.1999.720p.BrRip.x264
    Director : WinX HD Video Converter Deluxe
    Writing application : Lavf56.40.101

    Video
    ID : 0
    Format : MPEG-4 Visual
    Format profile : [email protected]
    Format settings, BVOP : No
    Format settings, QPel : No
    Format settings, GMC : No warppoints
    Format settings, Matrix : Default (H.263)
    Codec ID : XVID
    Codec ID/Hint : XviD
    Duration : 1h 54mn
    Bit rate : 1 465 Kbps
    Width : 720 pixels
    Height : 300 pixels
    Display aspect ratio : 2.40:1
    Frame rate : 23.976 fps
    Color space : YUV
    Chroma subsampling : 4 0
    Bit depth : 8 bits
    Scan type : Progressive
    Compression mode : Lossy
    Bits/(Pixel*Frame) : 0.283
    Stream size : 1.17 GiB (88%)
    Writing library : Lavc56.60.100

    Audio
    ID : 1
    Format : MPEG Audio
    Format version : Version 1
    Format profile : Layer 3
    Mode : Joint stereo
    Mode extension : MS Stereo
    Codec ID : 55
    Codec ID/Hint : MP3
    Duration : 1h 54mn
    Bit rate mode : Constant
    Bit rate : 192 Kbps
    Channel(s) : 2 channels
    Sampling rate : 48.0 KHz
    Compression mode : Lossy
    Stream size : 158 MiB (11%)
    Alignment : Aligned on interleaves
    Interleave, duration : 24 ms (0.58 video frame)
    Interleave, preload duration : 24 ms
    Title : Three Kings - YIFY
    Writing library : LAME3.99.5ŞŞŞŞŞŞŞŞŞŞ
    --------------------------------------------------------------------------------
    Torque (2004)

     

    http://www.imdb.com/title/tt0329691/
    http://tvprofil.net/show/449285/torque
    --------------------------------------------------------------------------------
    xXx: State of the Union (2005)

     

    http://www.imdb.com/title/tt0329774/
    http://tvprofil.net/show/901673/xxx-state-of-the-union
    --------------------------------------------------------------------------------

     


    Hidden Content:
    **Skriveni sadržaj: Morate kliknuti 'Hvala' prije nego sto mognete vidjeti skriveni post.**
     
    ckebo i biberija se ovo sviđa.
  8. Iwaan

    Iwaan

    Postova:
    13.420
    Zahvala:
    20.315
    Pol:
    Muški
    Lokacija:
    SerbianForum.org
    Arsenal (2017)

    Arsenal 2017 HDRip XviD AC3-EVO


     

     

    Žanr:Triler
    Režija:Steven C. Miller
    Glavne uloge:Nicolas Cage, John Cusack, Johnathon Schaech, Adrian Grenier,
    Lauryn Kent, Lydia Hull, William Mark McCullough …

    Mafijaš pokušava da spasi svog kidnapovanog brata

     

     
     
     
     
     

    General
    Complete name : Arsenal 2017 HDRip XviD AC3-EVO.avi
    Format : AVI
    Format/Info : Audio Video Interleave
    File size : 1.36 GiB
    Duration : 1h 32mn
    Overall bit rate : 2 105 Kbps
    Writing library : VirtualDub build 32593/release

    Video
    ID : 0
    Format : MPEG-4 Visual
    Format profile : Advanced [email protected]
    Format settings, BVOP : 2
    Format settings, QPel : No
    Format settings, GMC : No warppoints
    Format settings, Matrix : Default (H.263)
    Muxing mode : Packed bitstream
    Codec ID : XVID
    Codec ID/Hint : XviD
    Duration : 1h 32mn
    Bit rate : 1 711 Kbps
    Width : 720 pixels
    Height : 304 pixels
    Display aspect ratio : 2.35:1
    Frame rate : 23.976 (23976/1000) fps
    Color space : YUV
    Chroma subsampling : 4 0
    Bit depth : 8 bits
    Scan type : Progressive
    Compression mode : Lossy
    Bits/(Pixel*Frame) : 0.326
    Stream size : 1.10 GiB (81%)
    Writing library : XviD 66

    Audio
    ID : 1
    Format : AC-3
    Format/Info : Audio Coding 3
    Mode extension : CM (complete main)
    Format settings, Endianness : Big
    Codec ID : 2000
    Duration : 1h 32mn
    Bit rate mode : Constant
    Bit rate : 384 Kbps
    Channel(s) : 6 channels
    Channel positions : Front: L C R, Side: L R, LFE
    Sampling rate : 48.0 KHz
    Frame rate : 31.250 fps (1536 spf)
    Compression mode : Lossy
    Stream size : 253 MiB (18%)
    Alignment : Aligned on interleaves
    Interleave, duration : 42 ms (1.00 video frame)
    Interleave, preload duration : 512 ms



     


    Hidden Content:
    **Skriveni sadržaj: Morate kliknuti 'Hvala' prije nego sto mognete vidjeti skriveni post.**
     
  9. Iwaan

    Iwaan

    Postova:
    13.420
    Zahvala:
    20.315
    Pol:
    Muški
    Lokacija:
    SerbianForum.org
    Keeping Up With The Joneses (2016)

    Keeping Up With The Joneses 2016 720p BluRay x264-[YTS.AG]


     

     

    Žanr:Komedija
    Režija:Greg Mottola
    Glavne uloge:Zach Galifianakis, Isla Fisher, Gal Gadot, Jon Hamm, Patton Oswalt,
    Matt Walsh, Maribeth Monroe, Kevin Dunn, Ming Zhao…

    Miran i ne pretjerano zanimljiv par iz predgrađa upada u opasnu špijunsku igru kada saznaju kako su njihovi novi susjedi međunarodni špijuni.

     

     
     
     

    Keeping.Up.With.The.Joneses.2016.720p.BluRay.x264-[YTS.AG].mp4
    Format : MPEG-4
    Format profile : Base Media
    Codec ID : isom
    File size : 775 MiB
    Duration : 1h 45mn
    Overall bit rate : 1 029 Kbps
    Writing application : Lavf57.22.100

    Video
    ID : 1
    Format : AVC
    Format/Info : Advanced Video Codec
    Format profile : [email protected]
    Format settings, CABAC : Yes
    Format settings, ReFrames : 4 frames
    Codec ID : avc1
    Codec ID/Info : Advanced Video Coding
    Duration : 1h 45mn
    Bit rate : 900 Kbps
    Width : 1 280 pixels
    Height : 534 pixels
    Display aspect ratio : 2.40:1
    Original display aspect ratio : 2.40:1
    Frame rate mode : Constant
    Frame rate : 23.976 fps
    Color space : YUV
    Chroma subsampling : 4 0
    Bit depth : 8 bits
    Scan type : Progressive
    Bits/(Pixel*Frame) : 0.055
    Stream size : 678 MiB (87%)
    Writing library : x264 core 148
    Encoding settings : cabac=1 / ref=4 / deblock=1:-1:-1 / analyse=0x3:0x133 / me=umh / subme=9 / psy=1 / psy_rd=1.00:0.15 / mixed_ref=1 / me_range=24 / chroma_me=1 / trellis=2 / 8x8dct=1 / cqm=0 / deadzone=21,11 / fast_pskip=0 / chroma_qp_offset=-3 / threads=12 / lookahead_threads=1 / sliced_threads=0 / nr=0 / decimate=1 / interlaced=0 / bluray_compat=0 / constrained_intra=0 / bframes=3 / b_pyramid=2 / b_adapt=2 / b_bias=0 / direct=3 / weightb=1 / open_gop=0 / weightp=2 / keyint=250 / keyint_min=23 / scenecut=40 / intra_refresh=0 / rc_lookahead=60 / rc=2pass / mbtree=1 / bitrate=900 / ratetol=1.0 / qcomp=0.60 / qpmin=0 / qpmax=69 / qpstep=4 / cplxblur=20.0 / qblur=0.5 / vbv_maxrate=31250 / vbv_bufsize=31250 / nal_hrd=none / filler=0 / ip_ratio=1.40 / aq=1:1.00

    Audio
    ID : 2
    Format : AAC
    Format/Info : Advanced Audio Codec
    Format profile : LC
    Codec ID : 40
    Duration : 1h 45mn
    Bit rate mode : Constant
    Bit rate : 122 Kbps
    Channel(s) : 2 channels
    Channel positions : Front: L R
    Sampling rate : 48.0 KHz
    Compression mode : Lossy
    Stream size : 91.8 MiB (12%)



     


    Hidden Content:
    **Skriveni sadržaj: Morate kliknuti 'Hvala' prije nego sto mognete vidjeti skriveni post.**
     
  10. Iwaan

    Iwaan

    Postova:
    13.420
    Zahvala:
    20.315
    Pol:
    Muški
    Lokacija:
    SerbianForum.org
    The Girl With All The Gifts (2016) + Prijevod

     

     

    Radnja:
    U svijetu kojim podijeljeno vladaju smrt i kaos, posljednja oaza nade je ljudsko sklonište smješteno u Londonu. Grupa znanstvenika, čuvana željeznim stražarskim zidom od zombija, pokušava otkriti kako spasiti ljudsku rasu. Rješenje vide u maloj grupi djece, hibrida druge generacije - inficiranih smrtonosnim virusom, koji su uspjeli zadržati mentalne sposobnosti. Sve dok u blizini ne osjete ljudsku "aromu". Tada nagon postaje jači od razuma. Kao i u svakom eksperimentu, zamorčići su osuđeni na smrt za više ciljeve. Međutim, sve se mijenja kada doktorica Helen Justineau (Gemma Arterton) riskirajući život spasi djevojčicu Melanie (Sennia Nanua) iz opakih ruku voditeljice projekta, njene šefice Caroline Caldver (Glenn Close). Uvjerenja da je ona ta - posebna, u kojoj se krije protuotrov za pošast koja je žive pretvorila u mrtve, a u preostalima probudila ono najgore, Helen će za spas čovječanstva morati riskirati sve!



    Subs: CROATIAN

    Video
    ID : 0
    Format : MPEG-4 Visual
    Format profile : [email protected]
    Format settings, BVOP : No
    Format settings, QPel : No
    Format settings, GMC : No warppoints
    Format settings, Matrix : Default (H.263)
    Codec ID : XVID
    Codec ID/Hint : XviD
    Duration : 1h 46mn
    Bit rate : 5 446 Kbps
    Width : 1 280 pixels
    Height : 638 pixels
    Display aspect ratio : 2.006
    Frame rate : 25.000 fps
    Color space : YUV
    Chroma subsampling : 4 0
    Bit depth : 8 bits
    Scan type : Progressive
    Compression mode : Lossy
    Bits/(Pixel*Frame) : 0.267
    Stream size : 4.04 GiB (96%)
    Writing library : Lavc57.16.101

    Audio
    ID : 1
    Format : MPEG Audio
    Format version : Version 1
    Format profile : Layer 3
    Mode : Joint stereo
    Mode extension : MS Stereo
    Codec ID : 55
    Codec ID/Hint : MP3
    Duration : 1h 46mn
    Bit rate mode : Constant
    Bit rate : 192 Kbps
    Channel(s) : 2 channels
    Sampling rate : 48.0 KHz
    Compression mode : Lossy
    Stream size : 146 MiB (3%)
    Alignment : Aligned on interleaves
    Interleave, duration : 24 ms (0.60 video frame)
    Interleave, preload duration : 504 ms
    Writing library : LAME3.99.5


    Hidden Content:
    **Skriveni sadržaj: Morate kliknuti 'Hvala' prije nego sto mognete vidjeti skriveni post.**
     

Preporučite stranicu